Google Drive 100.Days.to.Live.2021.1080p.WEB-DL.DD5.1.H.264-EVO

Discussion in 'Web-DL / Webrip | 1080p' started by DDLbase, Feb 2, 2021.

  1. DDLbase

    DDLbase Administrator Staff Member

    [​IMG]

    Rating: 7.4/10 based on 399 user ratings

    Genres: Crime, Thriller

    When a serial killer abducts a young woman’s fiancé, she must race against the clock to discover the identity of the killer, and more importantly – his motive.

    [​IMG]
    Code:
    General
    Unique ID                   : 298394640109335114562171338782049476247 (0xE07CB79E8E540F9D10D604C1FC169E97)
    Complete name               : 100.Days.to.Live.2021.1080p.WEB-DL.DD5.1.H.264-EVO.mkv
    Format                      : Matroska
    Format version              : Version 4
    File size                   : 3.00 GiB
    Duration                    : 1 h 27 min
    Overall bit rate            : 4 927 kb/s
    Movie name                  : EVO
    Encoded date                : UTC 2021-02-02 05:10:26
    Writing application         : mkvmerge v35.0.0 ('All The Love In The World') 64-bit
    Writing library             : libebml v1.3.9 + libmatroska v1.5.2
    
    Video
    ID                          : 2
    Format                      : AVC
    Format/Info                 : Advanced Video Codec
    Format profile              : [email protected]
    Format settings             : CABAC / 5 Ref Frames
    Format settings, CABAC      : Yes
    Format settings, Reference  : 5 frames
    Codec ID                    : V_MPEG4/ISO/AVC
    Duration                    : 1 h 27 min
    Bit rate                    : 4 541 kb/s
    Width                       : 1 916 pixels
    Height                      : 800 pixels
    Display aspect ratio        : 2.40:1
    Frame rate mode             : Constant
    Frame rate                  : 23.976 FPS
    Color space                 : YUV
    Chroma subsampling          : 4:2:0
    Bit depth                   : 8 bits
    Scan type                   : Progressive
    Bits/(Pixel*Frame)          : 0.124
    Stream size                 : 2.77 GiB (92%)
    Language                    : English
    Default                     : Yes
    Forced                      : No
    Color range                 : Limited
    Color primaries             : BT.709
    Transfer characteristics    : BT.709
    Matrix coefficients         : BT.709
    
    Audio
    ID                          : 1
    Format                      : AC-3
    Format/Info                 : Audio Coding 3
    Commercial name             : Dolby Digital
    Codec ID                    : A_AC3
    Duration                    : 1 h 27 min
    Bit rate mode               : Constant
    Bit rate                    : 384 kb/s
    Channel(s)                  : 6 channels
    Channel layout              : L R C LFE Ls Rs
    Sampling rate               : 48.0 kHz
    Frame rate                  : 31.250 FPS (1536 SPF)
    Compression mode            : Lossy
    Delay relative to video     : -42 ms
    Stream size                 : 239 MiB (8%)
    Language                    : English
    Service kind                : Complete Main
    Default                     : Yes
    Forced                      : No
    
    Menu
    00:00:00.000                : en:Chapter 1
    00:09:57.430                : en:Chapter 2
    00:19:17.614                : en:Chapter 3
    00:27:25.351                : en:Chapter 4
    00:36:05.537                : en:Chapter 5
    00:44:31.542                : en:Chapter 6
    00:52:45.786                : en:Chapter 7
    01:00:45.056                : en:Chapter 8
    01:09:44.637                : en:Chapter 9
    01:17:36.442                : en:Chapter 10
    01:22:26.689                : en:Chapter 11
    01:27:10.967                : en:Chapter 1
    Download - Mirror 1:
    Download - Mirror 2:
     
  2. Loading...


Share This Page