Google Drive 1917.2019.2160p.WEB-DL.DDP5.1.HEVC-BLUTONiUM

Discussion in 'Web-DL / Webrip | 4K' started by DDLbase, Mar 11, 2020.

  1. DDLbase

    DDLbase Administrator Staff Member

    [​IMG]

    Rating: 8.4/10 based on 210,983 user ratings

    Genres: Drama, War

    April 6th, 1917. As a regiment assembles to wage war deep in enemy territory, two soldiers are assigned to race against time and deliver a message that will stop 1,600 men from walking straight into a deadly trap.

    [​IMG]
    Code:
    General
    
    Unique ID                   : 153383473153843997100516590257393362134 (0x73649517A63B8D9E4282BF219D8BE4D6)
    Complete name               : C:\1917.2019.2160p.WEB-DL.DDP5.1.HEVC-BLUTONiUM.mkv
    Format                      : Matroska
    Format version              : Version 4 / Version 2
    File size                   : 18.5 GiB
    Duration                    : 1h 58mn
    Overall bit rate            : 22.2 Mbps
    Encoded date                : UTC 2020-03-10 21:12:16
    Writing application         : mkvmerge v42.0.0 ('Overtime') 64-bit
    Writing library             : libebml v1.3.10 + libmatroska v1.5.2
    
    Video
    ID                          : 1
    Format                      : HEVC
    Format/Info                 : High Efficiency Video Coding
    Format profile              : Main [email protected]@High
    Codec ID                    : V_MPEGH/ISO/HEVC
    Duration                    : 1h 58mn
    Bit rate                    : 21.6 Mbps
    Width                       : 3 840 pixels
    Height                      : 2 160 pixels
    Display aspect ratio        : 16:9
    Frame rate mode             : Constant
    Frame rate                  : 23.976 (24000/1001) fps
    Color space                 : YUV
    Chroma subsampling          : 4:2:0
    Bit depth                   : 10 bits
    Bits/(Pixel*Frame)          : 0.108
    Stream size                 : 17.9 GiB (97%)
    Default                     : Yes
    Forced                      : No
    Color range                 : Limited
    Color primaries             : BT.709
    Transfer characteristics    : BT.709
    Matrix coefficients         : BT.709
    
    Audio
    ID                          : 2
    Format                      : E-AC-3
    Format/Info                 : Audio Coding 3
    Format settings, Endianness : Big
    Codec ID                    : A_EAC3
    Duration                    : 1h 58mn
    Bit rate mode               : Constant
    Bit rate                    : 640 Kbps
    Channel(s)                  : 6 channels
    Channel positions           : Front: L C R, Side: L R, LFE
    Sampling rate               : 48.0 KHz
    Frame rate                  : 187.500 fps (256 spf)
    Compression mode            : Lossy
    Stream size                 : 545 MiB (3%)
    Language                    : English
    Default                     : No
    Forced                      : No
    
    Text #1
    ID                          : 3
    Format                      : UTF-8
    Codec ID                    : S_TEXT/UTF8
    Codec ID/Info               : UTF-8 Plain Text
    Duration                    : 1h 45mn
    Bit rate                    : 36 bps
    Count of elements           : 1095
    Stream size                 : 28.4 KiB (0%)
    Language                    : English
    Default                     : No
    Forced                      : No
    
    Text #2
    ID                          : 4
    Format                      : UTF-8
    Codec ID                    : S_TEXT/UTF8
    Codec ID/Info               : UTF-8 Plain Text
    Duration                    : 1h 58mn
    Bit rate                    : 42 bps
    Count of elements           : 1473
    Stream size                 : 37.0 KiB (0%)
    Title                       : SDH
    Language                    : English
    Default                     : No
    Forced                      : No
    Download:
     
  2. Loading...


Share This Page