Google Drive 2012.2009.2160p.WEB-DL.DDP5.1.HEVC-BLUTONiUM

Discussion in 'Web-DL / Webrip | 4K' started by DDLbase, Feb 3, 2020.

  1. DDLbase

    DDLbase Administrator Staff Member

    [​IMG]

    Action, Adventure, Science Fiction | 2 hours 38 minutes

    Dr. Adrian Helmsley, part of a worldwide geophysical team investigating the effect on the earth of radiation from unprecedented solar storms, learns that the earth's core is heating up. He warns U.S. President Thomas Wilson that the crust of the earth is becoming unstable and that without proper preparations for saving a fraction of the world's population, the entire race is doomed. Meanwhile, writer Jackson Curtis stumbles on the same information. While the world's leaders race to build "arks" to escape the impending cataclysm, Curtis struggles to find a way to save his family. Meanwhile, volcanic eruptions and earthquakes of unprecedented strength wreak havoc around the world.

    [​IMG]

    Code:
    General
    Unique ID                                : 317192895303787063681191342544234697152 (0xEEA121284DE6F568B70B5B8418EB51C0)
    Complete name                            : /home/user/files/downloads/2012.2009.2160p.WEB-DL.DD+5.1.HEVC.H.265-BLUTONiUM/2012.2009.2160p.WEB-DL.DDP5.1.HEVC-BLUTONiUM.mkv
    Format                                  : Matroska
    Format version                          : Version 4 / Version 2
    File size                                : 27.8 GiB
    Duration                                : 2h 37mn
    Overall bit rate                        : 25.3 Mbps
    Encoded date                            : UTC 2019-10-31 15:35:55
    Writing application                      : mkvmerge v32.0.0 ('Astral Progressions') 32-bit
    Writing library                          : libebml v1.3.7 + libmatroska v1.5.0
    
    Video
    ID                                      : 1
    Format                                  : HEVC
    Format/Info                              : High Efficiency Video Coding
    Format profile                          : Main [email protected]@Main
    Codec ID                                : V_MPEGH/ISO/HEVC
    Duration                                : 2h 37mn
    Bit rate                                : 25.0 Mbps
    Width                                    : 3 840 pixels
    Height                                  : 2 160 pixels
    Display aspect ratio                    : 16:9
    Frame rate mode                          : Constant
    Frame rate                              : 23.976 (24000/1001) fps
    Color space                              : YUV
    Chroma subsampling                      : 4:2:0
    Bit depth                                : 10 bits
    Bits/(Pixel*Frame)                      : 0.126
    Stream size                              : 27.6 GiB (99%)
    Language                                : English
    Default                                  : Yes
    Forced                                  : No
    Color range                              : Limited
    Color primaries                          : BT.709
    Transfer characteristics                : BT.709
    Matrix coefficients                      : BT.709
    
    Audio
    ID                                      : 2
    Format                                  : E-AC-3
    Format/Info                              : Audio Coding 3
    Format settings, Endianness              : Big
    Codec ID                                : A_EAC3
    Duration                                : 2h 37mn
    Bit rate mode                            : Constant
    Bit rate                                : 256 Kbps
    Channel(s)                              : 6 channels
    Channel positions                        : Front: L C R, Side: L R, LFE
    Sampling rate                            : 48.0 KHz
    Frame rate                              : 187.500 fps (256 spf)
    Compression mode                        : Lossy
    Stream size                              : 289 MiB (1%)
    Language                                : English
    Default                                  : Yes
    Forced                                  : No
    
    Text
    ID                                      : 3
    Format                                  : UTF-8
    Codec ID                                : S_TEXT/UTF8
    Codec ID/Info                            : UTF-8 Plain Text
    Duration                                : 2h 9mn
    Bit rate                                : 2 bps
    Count of elements                        : 90
    Stream size                              : 2.75 KiB (0%)
    Language                                : English
    Default                                  : Yes
    Forced                                  : No
    Download:
     
  2. Loading...


Share This Page