Google Drive 40 Days and 40 Nights 2002 BluRay 1080p DTS-HD MA 5.1 AVC REMUX-FraMeSToR

Discussion in 'BD REMUX | 1080p' started by DDLbase, Apr 4, 2020.

  1. DDLbase

    DDLbase Administrator Staff Member

    [​IMG]

    40 Days and 40 Nights (2002)

    [​IMG] 5.6/10[​IMG] 68,379

    Plot

    Nicole broke up with Matt months ago and is now engaged to someone else. He's very good-looking and has no trouble finding other lovers, but that doesn't help because he's still obsessed with wanting her back. Then he gets the inspiration that swearing off sex for Lent (all forms of sexual activity, even kissing or masturbation) will give him the perspective he needs. So of course a few days later he meets a woman and they fall in love. Now Matt sees his vow as a personal matter, and won't even tell her about it, but his friends think otherwise, and now the complications begin...

    Movie Info
    • Rating: R
    • Genre: Comedy, Romance
    • Directed By: Michael Lehmann
    • Written By: Rob Perez
    • Starring: Josh Hartnett, Shannyn Sossamon, Paulo Costanzo, Adam Trese
    • Release Date: 01 Mar 2002
    • Runtime: 96 min
    • Production: Miramax Films
    Code:
    General
    Unique ID                                : 229849693315496669298657463358707262723 (0xACEB70D2235E15E09D66AA9B471CE503)
    Complete name                            : 40.Days.and.40.Nights.2002.BluRay.1080p.DTS-HD.MA.5.1.AVC.REMUX-FraMeSToR.mkv
    Format                                   : Matroska
    Format version                           : Version 4 / Version 2
    File size                                : 15.8 GiB
    Duration                                 : 1 h 35 min
    Overall bit rate mode                    : Variable
    Overall bit rate                         : 23.7 Mb/s
    Movie name                               : 40.Days.and.40.Nights.2002.BluRay.1080p.DTS-HD.MA.5.1.AVC.REMUX-FraMeSToR
    Encoded date                             : UTC 2014-11-12 17:19:45
    Writing application                      : mkvmerge v7.3.0 ('Nouages') 64bit built on Oct 22 2014 18:53:34
    Writing library                          : libebml v1.3.0 + libmatroska v1.4.1
    
    Video
    ID                                       : 1
    Format                                   : AVC
    Format/Info                              : Advanced Video Codec
    Format profile                           : [email protected]
    Format settings                          : CABAC / 4 Ref Frames
    Format settings, CABAC                   : Yes
    Format settings, ReFrames                : 4 frames
    Codec ID                                 : V_MPEG4/ISO/AVC
    Duration                                 : 1 h 35 min
    Bit rate mode                            : Variable
    Bit rate                                 : 19.4 Mb/s
    Maximum bit rate                         : 33.0 Mb/s
    Width                                    : 1 920 pixels
    Height                                   : 1 080 pixels
    Display aspect ratio                     : 16:9
    Frame rate mode                          : Constant
    Frame rate                               : 23.976 (24000/1001) FPS
    Color space                              : YUV
    Chroma subsampling                       : 4:2:0
    Bit depth                                : 8 bits
    Scan type                                : Progressive
    Bits/(Pixel*Frame)                       : 0.391
    Stream size                              : 13.0 GiB (82%)
    Title                                    : MPEG-4 AVC Video / 19498 kbps / 1080p / 23,976 fps / 16:9 / High Profile 4.1
    Language                                 : English
    Default                                  : Yes
    Forced                                   : No
    
    Audio
    ID                                       : 2
    Format                                   : DTS
    Format/Info                              : Digital Theater Systems
    Format profile                           : MA / Core
    Codec ID                                 : A_DTS
    Duration                                 : 1 h 35 min
    Bit rate mode                            : Variable / Constant
    Bit rate                                 : 3 934 kb/s / 1 509 kb/s
    Channel(s)                               : 6 channels
    Channel positions                        : Front: L C R, Side: L R, LFE
    Sampling rate                            : 48.0 kHz
    Frame rate                               : 93.750 FPS (512 SPF)
    Bit depth                                : 24 bits
    Compression mode                         : Lossless / Lossy
    Stream size                              : 2.62 GiB (17%)
    Title                                    : DTS-HD Master Audio / English / 3934 kbps / 5.1 / 48 kHz / 3934 kbps / 24-bit
    Language                                 : English
    Default                                  : Yes
    Forced                                   : No
    
    Text #1
    ID                                       : 3
    Format                                   : PGS
    Codec ID                                 : S_HDMV/PGS
    Codec ID/Info                            : Picture based subtitle format used on BDs/HD-DVDs
    Duration                                 : 1 h 29 min
    Bit rate                                 : 52.4 kb/s
    Count of elements                        : 2159
    Stream size                              : 33.4 MiB (0%)
    Language                                 : English
    Default                                  : No
    Forced                                   : No
    
    Text #2
    ID                                       : 4
    Format                                   : PGS
    Codec ID                                 : S_HDMV/PGS
    Codec ID/Info                            : Picture based subtitle format used on BDs/HD-DVDs
    Duration                                 : 1 h 28 min
    Bit rate                                 : 48.7 kb/s
    Count of elements                        : 2062
    Stream size                              : 30.9 MiB (0%)
    Language                                 : Danish
    Default                                  : No
    Forced                                   : No
    
    Text #3
    ID                                       : 5
    Format                                   : PGS
    Codec ID                                 : S_HDMV/PGS
    Codec ID/Info                            : Picture based subtitle format used on BDs/HD-DVDs
    Duration                                 : 1 h 28 min
    Bit rate                                 : 47.4 kb/s
    Count of elements                        : 2088
    Stream size                              : 30.1 MiB (0%)
    Language                                 : Spanish
    Default                                  : No
    Forced                                   : No
    
    Text #4
    ID                                       : 6
    Format                                   : PGS
    Codec ID                                 : S_HDMV/PGS
    Codec ID/Info                            : Picture based subtitle format used on BDs/HD-DVDs
    Duration                                 : 1 h 28 min
    Bit rate                                 : 47.0 kb/s
    Count of elements                        : 2092
    Stream size                              : 29.8 MiB (0%)
    Language                                 : Norwegian
    Default                                  : No
    Forced                                   : No
    
    Text #5
    ID                                       : 7
    Format                                   : PGS
    Codec ID                                 : S_HDMV/PGS
    Codec ID/Info                            : Picture based subtitle format used on BDs/HD-DVDs
    Duration                                 : 1 h 28 min
    Bit rate                                 : 47.0 kb/s
    Count of elements                        : 2054
    Stream size                              : 29.8 MiB (0%)
    Language                                 : Finnish
    Default                                  : No
    Forced                                   : No
    
    Text #6
    ID                                       : 8
    Format                                   : PGS
    Codec ID                                 : S_HDMV/PGS
    Codec ID/Info                            : Picture based subtitle format used on BDs/HD-DVDs
    Duration                                 : 1 h 28 min
    Bit rate                                 : 43.0 kb/s
    Count of elements                        : 2066
    Stream size                              : 27.3 MiB (0%)
    Language                                 : Swedish
    Default                                  : No
    Forced                                   : No
    
    Text #7
    ID                                       : 9
    Format                                   : PGS
    Codec ID                                 : S_HDMV/PGS
    Codec ID/Info                            : Picture based subtitle format used on BDs/HD-DVDs
    Duration                                 : 1 h 28 min
    Bit rate                                 : 25.1 kb/s
    Count of elements                        : 2206
    Stream size                              : 15.9 MiB (0%)
    Language                                 : Japanese
    Default                                  : No
    Forced                                   : No
    
    Text #8
    ID                                       : 10
    Format                                   : PGS
    Codec ID                                 : S_HDMV/PGS
    Codec ID/Info                            : Picture based subtitle format used on BDs/HD-DVDs
    Duration                                 : 1 h 29 min
    Bit rate                                 : 47.9 kb/s
    Count of elements                        : 2190
    Stream size                              : 30.6 MiB (0%)
    Language                                 : Russian
    Default                                  : No
    Forced                                   : No
    
    Text #9
    ID                                       : 11
    Format                                   : PGS
    Codec ID                                 : S_HDMV/PGS
    Codec ID/Info                            : Picture based subtitle format used on BDs/HD-DVDs
    Duration                                 : 1 h 22 min
    Bit rate                                 : 409 b/s
    Count of elements                        : 42
    Stream size                              : 249 KiB (0%)
    Language                                 : Japanese
    Default                                  : No
    Forced                                   : No
    
    Menu
    00:00:00.000                             : en:Chapter 01
    00:06:58.334                             : en:Chapter 02
    00:15:03.569                             : en:Chapter 03
    00:22:56.875                             : en:Chapter 04
    00:30:20.568                             : en:Chapter 05
    00:37:41.050                             : en:Chapter 06
    00:44:38.967                             : en:Chapter 07
    00:52:40.323                             : en:Chapter 08
    00:59:31.442                             : en:Chapter 09
    01:09:30.249                             : en:Chapter 10
    01:14:32.718                             : en:Chapter 11
    01:24:25.226                             : en:Chapter 12
    Download:
     
  2. Loading...


Share This Page