Google Drive 500.Days.of.Summer.2009.PROPER.1080p.BluRay.x264-SADPANDA

Discussion in 'BDRip | 720p/1080p' started by DDLbase, Jul 30, 2020.

  1. DDLbase

    DDLbase Administrator Staff Member

    [​IMG]

    Rating: 7.7/10 based on 462,800 user ratings

    Genres: Comedy, Drama, Romance

    An offbeat romantic comedy about a woman who doesn’t believe true love exists, and the young man who falls for her.

    [​IMG]
    Code:
    General
    Unique ID                   : 222826956129644072983941742180685710244 (0xA7A2E9251F059BECAC1072695FC203A4)
    Complete name               : 500.Days.of.Summer.2009.PROPER.1080p.BluRay.x264-SADPANDA.mkv
    Format                      : Matroska
    Format version              : Version 4
    File size                   : 8.74 GiB
    Duration                    : 1 h 35 min
    Overall bit rate            : 13.2 Mb/s
    Encoded date                : UTC 2016-09-07 06:23:34
    Writing application         : mkvmerge v9.4.0 ('Knurl') 64bit
    Writing library             : libebml v1.3.4 + libmatroska v1.4.5
    
    Video
    ID                          : 1
    Format                      : AVC
    Format/Info                 : Advanced Video Codec
    Format profile              : [email protected]
    Format settings             : CABAC / 5 Ref Frames
    Format settings, CABAC      : Yes
    Format settings, Reference  : 5 frames
    Codec ID                    : V_MPEG4/ISO/AVC
    Duration                    : 1 h 35 min
    Bit rate                    : 11.7 Mb/s
    Width                       : 1 920 pixels
    Height                      : 800 pixels
    Display aspect ratio        : 2.40:1
    Frame rate mode             : Constant
    Frame rate                  : 23.976 (24000/1001) FPS
    Color space                 : YUV
    Chroma subsampling          : 4:2:0
    Bit depth                   : 8 bits
    Scan type                   : Progressive
    Bits/(Pixel*Frame)          : 0.316
    Stream size                 : 7.74 GiB (89%)
    Writing library             : x264 core 148 r2705 3f5ed56
    Encoding settings           : cabac=1 / ref=5 / deblock=1:-3:-3 / analyse=0x3:0x113 / me=umh / subme=8 / psy=1 / psy_rd=1.00:0.25 / mixed_ref=1 / me_range=24 / chroma_me=1 / trellis=1 / 8x8dct=1 / cqm=0 / deadzone=21,11 / fast_pskip=1 / chroma_qp_offset=-4 / threads=24 / lookahead_threads=4 / sliced_threads=0 / nr=0 / decimate=1 / interlaced=0 / bluray_compat=0 / constrained_intra=0 / bframes=3 / b_pyramid=2 / b_adapt=2 / b_bias=0 / direct=3 / weightb=1 / open_gop=0 / weightp=2 / keyint=240 / keyint_min=24 / scenecut=40 / intra_refresh=0 / rc_lookahead=50 / rc=2pass / mbtree=1 / bitrate=11651 / ratetol=1.0 / qcomp=0.60 / qpmin=0 / qpmax=69 / qpstep=4 / cplxblur=20.0 / qblur=0.5 / ip_ratio=1.40 / aq=1:0.50
    Default                     : Yes
    Forced                      : No
    
    Audio
    ID                          : 2
    Format                      : DTS
    Format/Info                 : Digital Theater Systems
    Codec ID                    : A_DTS
    Duration                    : 1 h 35 min
    Bit rate mode               : Constant
    Bit rate                    : 1 509 kb/s
    Channel(s)                  : 6 channels
    Channel layout              : C L R Ls Rs LFE
    Sampling rate               : 48.0 kHz
    Frame rate                  : 93.750 FPS (512 SPF)
    Bit depth                   : 24 bits
    Compression mode            : Lossy
    Stream size                 : 1.00 GiB (11%)
    Language                    : English
    Default                     : Yes
    Forced                      : No
    
    Text #1
    ID                          : 3
    Format                      : UTF-8
    Codec ID                    : S_TEXT/UTF8
    Codec ID/Info               : UTF-8 Plain Text
    Duration                    : 1 h 32 min
    Bit rate                    : 70 b/s
    Count of elements           : 1336
    Stream size                 : 47.7 KiB (0%)
    Language                    : English
    Default                     : No
    Forced                      : No
    
    Text #2
    ID                          : 4
    Format                      : UTF-8
    Codec ID                    : S_TEXT/UTF8
    Codec ID/Info               : UTF-8 Plain Text
    Duration                    : 1 h 34 min
    Bit rate                    : 75 b/s
    Count of elements           : 1434
    Stream size                 : 52.1 KiB (0%)
    Title                       : SDH
    Language                    : English
    Default                     : No
    Forced                      : No
    
    Menu
    00:00:00.000                : en:00:00:00.000
    00:03:57.779                : en:00:03:57.779
    00:07:05.425                : en:00:07:05.425
    00:09:19.184                : en:00:09:19.184
    00:13:34.147                : en:00:13:34.147
    00:14:22.320                : en:00:14:22.320
    00:16:53.429                : en:00:16:53.429
    00:19:18.699                : en:00:19:18.699
    00:24:29.927                : en:00:24:29.927
    00:27:00.285                : en:00:27:00.285
    00:30:39.755                : en:00:30:39.755
    00:33:27.422                : en:00:33:27.422
    00:35:33.506                : en:00:35:33.506
    00:38:14.375                : en:00:38:14.375
    00:43:46.874                : en:00:43:46.874
    00:52:24.141                : en:00:52:24.141
    00:56:47.154                : en:00:56:47.154
    01:00:26.039                : en:01:00:26.039
    01:06:24.731                : en:01:06:24.731
    01:10:49.787                : en:01:10:49.787
    01:15:15.052                : en:01:15:15.052
    01:19:00.778                : en:01:19:00.778
    01:21:22.920                : en:01:21:22.920
    01:27:08.557                : en:01:27:08.557
    Download:
     
  2. Loading...


Share This Page