Google Drive 5th Of July 2019 BluRay 1080p DTS-HD MA 5.1 AVC REMUX-FraMeSToR

Discussion in 'BD REMUX | 1080p' started by DDLbase, Apr 4, 2020.

  1. DDLbase

    DDLbase Administrator Staff Member

    [​IMG]
    5th of July (2019)

    [​IMG] 4.0/10 [​IMG] 65

    Plot

    All he wanted to do was spread his father's ashes in the national park - mayhem ensues.

    Movie Info
    • Genre: Comedy
    • Directed By: Camilo Vila
    • Written By: Monty Fisher, Nick Machado (contributing writer), Camilo Vila
    • Starring: Jaleel White, Gary Anthony Williams, Sean Kanan, Brent Briscoe
    • Release Date: 14 Feb 2019
    • Runtime: 100 min
    Code:
    General
    Unique ID                                : 134357685558054344063135385453186334107 (0x651459573E5E78E86F60067473893D9B)
    Complete name                            : 5th.Of.July.2019.BluRay.1080p.DTS-HD.MA.5.1.AVC.REMUX-FraMeSToR.mkv
    Format                                   : Matroska
    Format version                           : Version 4 / Version 2
    File size                                : 20.2 GiB
    Duration                                 : 1 h 42 min
    Overall bit rate mode                    : Variable
    Overall bit rate                         : 28.2 Mb/s
    Movie name                               : 5th Of July (2019)
    Encoded date                             : UTC 2019-09-19 17:09:26
    Writing application                      : mkvmerge v35.0.0 ('All The Love In The World') 64-bit
    Writing library                          : libebml v1.3.9 + libmatroska v1.5.2
    
    Video
    ID                                       : 1
    Format                                   : AVC
    Format/Info                              : Advanced Video Codec
    Format profile                           : [email protected]
    Format settings                          : CABAC / 4 Ref Frames
    Format settings, CABAC                   : Yes
    Format settings, ReFrames                : 4 frames
    Codec ID                                 : V_MPEG4/ISO/AVC
    Duration                                 : 1 h 42 min
    Bit rate mode                            : Variable
    Bit rate                                 : 25.5 Mb/s
    Maximum bit rate                         : 35.0 Mb/s
    Width                                    : 1 920 pixels
    Height                                   : 1 080 pixels
    Display aspect ratio                     : 16:9
    Frame rate mode                          : Constant
    Frame rate                               : 23.976 (24000/1001) FPS
    Color space                              : YUV
    Chroma subsampling                       : 4:2:0
    Bit depth                                : 8 bits
    Scan type                                : Progressive
    Bits/(Pixel*Frame)                       : 0.512
    Stream size                              : 18.3 GiB (90%)
    Default                                  : Yes
    Forced                                   : No
    Color range                              : Limited
    Color primaries                          : BT.709
    Transfer characteristics                 : BT.709
    Matrix coefficients                      : BT.709
    
    Audio
    ID                                       : 2
    Format                                   : DTS
    Format/Info                              : Digital Theater Systems
    Format profile                           : MA / Core
    Codec ID                                 : A_DTS
    Duration                                 : 1 h 42 min
    Bit rate mode                            : Variable / Constant
    Bit rate                                 : 2 700 kb/s / 1 509 kb/s
    Channel(s)                               : 6 channels
    Channel positions                        : Front: L C R, Side: L R, LFE
    Sampling rate                            : 48.0 kHz
    Frame rate                               : 93.750 FPS (512 SPF)
    Bit depth                                : 24 bits
    Compression mode                         : Lossless / Lossy
    Stream size                              : 1.94 GiB (10%)
    Title                                    : DTS-HD MA 5.1
    Language                                 : English
    Default                                  : Yes
    Forced                                   : No
    
    Text
    ID                                       : 3
    Format                                   : PGS
    Codec ID                                 : S_HDMV/PGS
    Codec ID/Info                            : Picture based subtitle format used on BDs/HD-DVDs
    Duration                                 : 1 h 41 min
    Bit rate                                 : 44.4 kb/s
    Count of elements                        : 3494
    Stream size                              : 32.2 MiB (0%)
    Title                                    : English (SDH)
    Language                                 : English
    Default                                  : No
    Forced                                   : No
    
    Menu
    00:00:00.000                             : en:Chapter 1
    00:09:46.127                             : en:Chapter 2
    00:20:05.746                             : en:Chapter 3
    00:29:33.188                             : en:Chapter 4
    00:41:02.210                             : en:Chapter 5
    00:50:04.835                             : en:Chapter 6
    00:59:46.666                             : en:Chapter 7
    01:09:55.691                             : en:Chapter 8
    01:21:06.028                             : en:Chapter 9
    01:29:45.880                             : en:Chapter 10
    01:38:12.345                             : en:Chapter 11
    Download:
     
  2. Loading...


Share This Page