Google Drive 65.2023.2160p.WEB-DL.DDP5.1.DV.HDR.H.265-FLUX

Discussion in 'Web-DL / Webrip | 4K' started by DDLbase, Apr 7, 2023.

New website version: https://ddlbase.com (final revisions being made) New website version: https://ddlbase.com (final revisions being made)
  1. DDLbase

    DDLbase Administrator Staff Member

    [​IMG]

    Rating: 5.7/10 based on 14,511 user ratings

    Genres: Action, Adventure, Drama

    An astronaut crash lands on a mysterious planet only to discover he's not alone.

    [​IMG]
    Code:
    General
    Unique ID                   : 322972932882525981955489104848462283181 (0xF2FA53032127BC69125417C7B8B001AD)
    Complete name               : 65.2023.2160p.WEB-DL.DDP5.1.DV.HDR.H.265-FLUX.mkv
    Format                      : Matroska
    Format version              : Version 4
    File size                   : 16.1 GiB
    Duration                    : 1 h 32 min
    Overall bit rate            : 24.9 Mb/s
    Writing application         : mkvmerge v75.0.0 ('Goliath') 64-bit
    Writing library             : libebml v1.4.4 + libmatroska v1.7.1
    
    Video
    ID                          : 1
    Format                      : HEVC
    Format/Info                 : High Efficiency Video Coding
    Format profile              : Main 10@L5@High
    HDR format                  : Dolby Vision, Version 1.0, dvhe.08.06, BL+RPU, HDR10 compatible / SMPTE ST 2086, HDR10 compatible
    Codec ID                    : V_MPEGH/ISO/HEVC
    Duration                    : 1 h 32 min
    Bit rate                    : 24.3 Mb/s
    Width                       : 3 840 pixels
    Height                      : 1 604 pixels
    Display aspect ratio        : 2.40:1
    Frame rate mode             : Constant
    Frame rate                  : 23.976 FPS
    Color space                 : YUV
    Chroma subsampling          : 4:2:0 (Type 2)
    Bit depth                   : 10 bits
    Bits/(Pixel*Frame)          : 0.165
    Stream size                 : 15.7 GiB (97%)
    Language                    : English
    Default                     : Yes
    Forced                      : No
    Color range                 : Limited
    Color primaries             : BT.2020
    Transfer characteristics    : PQ
    Matrix coefficients         : BT.2020 non-constant
    Mastering display color pri : BT.2020
    Mastering display luminance : min: 0.0050 cd/m2, max: 1000 cd/m2
    Maximum Content Light Level : 900 cd/m2
    Maximum Frame-Average Light : 344 cd/m2
    
    Audio
    ID                          : 2
    Format                      : E-AC-3
    Format/Info                 : Enhanced AC-3
    Commercial name             : Dolby Digital Plus
    Codec ID                    : A_EAC3
    Duration                    : 1 h 32 min
    Bit rate mode               : Constant
    Bit rate                    : 640 kb/s
    Channel(s)                  : 6 channels
    Channel layout              : L R C LFE Ls Rs
    Sampling rate               : 48.0 kHz
    Frame rate                  : 31.250 FPS (1536 SPF)
    Compression mode            : Lossy
    Delay relative to video     : 12 ms
    Stream size                 : 425 MiB (3%)
    Language                    : English
    Service kind                : Complete Main
    Default                     : Yes
    Forced                      : No
    
    Text #1
    ID                          : 3
    Format                      : UTF-8
    Codec ID                    : S_TEXT/UTF8
    Codec ID/Info               : UTF-8 Plain Text
    Duration                    : 1 h 22 min
    Bit rate                    : 15 b/s
    Frame rate                  : 0.079 FPS
    Count of elements           : 389
    Stream size                 : 9.18 KiB (0%)
    Language                    : English
    Default                     : No
    Forced                      : No
    
    Text #2
    ID                          : 4
    Format                      : UTF-8
    Codec ID                    : S_TEXT/UTF8
    Codec ID/Info               : UTF-8 Plain Text
    Duration                    : 1 h 29 min
    Bit rate                    : 20 b/s
    Frame rate                  : 0.122 FPS
    Count of elements           : 653
    Stream size                 : 13.1 KiB (0%)
    Title                       : SDH
    Language                    : English
    Default                     : No
    Forced                      : No
    
    Text #3
    ID                          : 5
    Format                      : UTF-8
    Codec ID                    : S_TEXT/UTF8
    Codec ID/Info               : UTF-8 Plain Text
    Duration                    : 1 h 31 min
    Bit rate                    : 13 b/s
    Frame rate                  : 0.070 FPS
    Count of elements           : 385
    Stream size                 : 9.17 KiB (0%)
    Title                       : Latin American
    Language                    : Spanish
    Default                     : No
    Forced                      : No
    
    Text #4
    ID                          : 6
    Format                      : UTF-8
    Codec ID                    : S_TEXT/UTF8
    Codec ID/Info               : UTF-8 Plain Text
    Duration                    : 1 h 31 min
    Bit rate                    : 13 b/s
    Frame rate                  : 0.062 FPS
    Count of elements           : 339
    Stream size                 : 9.02 KiB (0%)
    Language                    : French
    Default                     : No
    Forced                      : No
    
    Text #5
    ID                          : 7
    Format                      : UTF-8
    Codec ID                    : S_TEXT/UTF8
    Codec ID/Info               : UTF-8 Plain Text
    Duration                    : 1 h 31 min
    Bit rate                    : 14 b/s
    Frame rate                  : 0.069 FPS
    Count of elements           : 379
    Stream size                 : 9.49 KiB (0%)
    Title                       : Brazilian
    Language                    : Portuguese
    Default                     : No
    Forced                      : No
    Download - Mirror 1:
    Download - Mirror 2:
    Download - Mirror 3:
     
  2. Loading...


Share This Page