Google Drive 68 Kill 2017 BluRay 1080i DTS-HD MA 5.1 AVC REMUX-FraMeSToR

Discussion in 'BD REMUX | 1080p' started by DDLbase, Apr 4, 2020.

  1. DDLbase

    DDLbase Administrator Staff Member

    [​IMG]

    68 Kill (2017)

    [​IMG] 6.0/10 [​IMG] 4,257

    Plot

    It started with a couple dead bodies and $68,000 in stolen cash. Chip Taylor's girlfriend Liza had the perfect plan to rip off her rich sugar daddy. It should have been an easy in and out kind of deal. Nobody would get hurt and they would come out of it with enough loot to solve their problems. But things started going wrong as soon as they were inside the rich man's house, and for Chip it was only the beginning of the longest, most terrifying ride of his life.

    Movie Info
    • Rating: R
    • Genre: Comedy, Crime, Romance, Thriller
    • Directed By: Trent Haaga
    • Written By: Trent Haaga (screenplay), Bryan Smith (novel)
    • Starring: Matthew Gray Gubler, AnnaLynne McCord, Alisha Boe, Sheila Vand
    • Release Date: 04 Aug 2017
    • Runtime: 93 min
    • Production: Snowfort Pictures
    Code:
    General
    Unique ID                                : 273879656284320833511839525118528174995 (0xCE0B4D993FC52EBD716E055EDD1FBB93)
    Complete name                            : 68.Kill.2017.BluRay.1080i.DTS-HD.MA.5.1.AVC.REMUX-FraMeSToR.mkv
    Format                                   : Matroska
    Format version                           : Version 4 / Version 2
    File size                                : 16.3 GiB
    Duration                                 : 1 h 31 min
    Overall bit rate mode                    : Variable
    Overall bit rate                         : 25.4 Mb/s
    Movie name                               : 68 Kill
    Encoded date                             : UTC 2017-10-06 14:17:55
    Writing application                      : mkvmerge v16.0.0 ('Protest') 64-bit
    Writing library                          : libebml v1.3.5 + libmatroska v1.4.8
    
    Video
    ID                                       : 1
    Format                                   : AVC
    Format/Info                              : Advanced Video Codec
    Format profile                           : [email protected]
    Format settings                          : CABAC / 2 Ref Frames
    Format settings, CABAC                   : Yes
    Format settings, ReFrames                : 2 frames
    Format settings, GOP                     : M=1, N=5
    Codec ID                                 : V_MPEG4/ISO/AVC
    Duration                                 : 1 h 31 min
    Bit rate mode                            : Variable
    Bit rate                                 : 23.6 Mb/s
    Maximum bit rate                         : 34.2 Mb/s
    Width                                    : 1 920 pixels
    Height                                   : 1 080 pixels
    Display aspect ratio                     : 16:9
    Frame rate mode                          : Constant
    Frame rate                               : 25.000 FPS
    Color space                              : YUV
    Chroma subsampling                       : 4:2:0
    Bit depth                                : 8 bits
    Scan type                                : MBAFF
    Scan type, store method                  : Interleaved fields
    Scan order                               : Top Field First
    Bits/(Pixel*Frame)                       : 0.455
    Stream size                              : 15.1 GiB (93%)
    Default                                  : Yes
    Forced                                   : No
    
    Audio
    ID                                       : 2
    Format                                   : DTS
    Format/Info                              : Digital Theater Systems
    Format profile                           : MA / Core
    Codec ID                                 : A_DTS
    Duration                                 : 1 h 31 min
    Bit rate mode                            : Variable / Constant
    Bit rate                                 : 1 724 kb/s / 1 509 kb/s
    Channel(s)                               : 6 channels
    Channel positions                        : Front: L C R, Side: L R, LFE
    Sampling rate                            : 48.0 kHz
    Frame rate                               : 93.750 FPS (512 SPF)
    Bit depth                                : 16 bits
    Compression mode                         : Lossless / Lossy
    Stream size                              : 1.11 GiB (7%)
    Title                                    : DTS-HD MA 5.1
    Language                                 : English
    Default                                  : Yes
    Forced                                   : No
    
    Text
    ID                                       : 3
    Format                                   : PGS
    Codec ID                                 : S_HDMV/PGS
    Codec ID/Info                            : Picture based subtitle format used on BDs/HD-DVDs
    Duration                                 : 1 h 30 min
    Bit rate                                 : 71.1 kb/s
    Count of elements                        : 2250
    Stream size                              : 45.8 MiB (0%)
    Title                                    : German
    Language                                 : German
    Default                                  : No
    Forced                                   : No
    
    Menu
    00:00:00.000                             : en:00:00:00.000
    00:13:22.120                             : en:00:13:22.120
    00:21:59.120                             : en:00:21:59.120
    00:33:33.520                             : en:00:33:33.520
    00:45:59.480                             : en:00:45:59.480
    00:57:24.920                             : en:00:57:24.920
    01:07:29.000                             : en:01:07:29.000
    01:17:34.240                             : en:01:17:34.240
    Download:
     
  2. Loading...


Share This Page