Google Drive A Brighter Summer Day 1991 Criterion Collection BluRay 1080p DTS-HD MA 1.0 AVC REMUX-FraMeSToR

Discussion in 'BD REMUX | 1080p' started by DDLbase, Apr 4, 2020.

  1. DDLbase

    DDLbase Administrator Staff Member

    [​IMG]

    A Brighter Summer Day (1991)

    [​IMG] 8.4/10 [​IMG] 6,280

    Plot

    Based on a true story, primarily on a conflict between two youth gangs, a 14-year-old boy's girlfriend conflicts with the head of one gang for an unclear reason, until finally the conflict comes to a violent climax.

    Movie Info
    • Rating: Not Rated
    • Genre: Crime, Drama, Romance
    • Directed By: Edward Yang
    • Written By: Hung Hung, Mingtang Lai, Alex Yang, Edward Yang
    • Starring: Chen Chang, Lisa Yang, Kuo-Chu Chang, Elaine Jin
    • Release Date: 25 Nov 2011
    • Runtime: 237 min
    • Production: The Criterion Collection
    Code:
    General
    Unique ID                                : 302986528121634849525905959467228813421 (0xE3F1152D80390F78B90FB6CDDBC7586D)
    Complete name                            : A.Brighter.Summer.Day.1991.Criterion.Collection.BluRay.1080p.DTS-HD.MA.1.0.AVC.REMUX-FraMeSToR.mkv
    Format                                   : Matroska
    Format version                           : Version 4 / Version 2
    File size                                : 39.9 GiB
    Duration                                 : 3 h 56 min
    Overall bit rate mode                    : Variable
    Overall bit rate                         : 24.1 Mb/s
    Movie name                               : A Brighter Summer Day (1991) Criterion Collection
    Encoded date                             : UTC 2018-03-03 18:47:39
    Writing application                      : mkvmerge v21.0.0 ('Tardigrades Will Inherit The Earth') 64-bit
    Writing library                          : libebml v1.3.5 + libmatroska v1.4.8
    
    Video
    ID                                       : 1
    Format                                   : AVC
    Format/Info                              : Advanced Video Codec
    Format profile                           : [email protected]
    Format settings                          : CABAC / 4 Ref Frames
    Format settings, CABAC                   : Yes
    Format settings, ReFrames                : 4 frames
    Codec ID                                 : V_MPEG4/ISO/AVC
    Duration                                 : 3 h 56 min
    Bit rate mode                            : Variable
    Bit rate                                 : 22.8 Mb/s
    Maximum bit rate                         : 37.0 Mb/s
    Width                                    : 1 920 pixels
    Height                                   : 1 080 pixels
    Display aspect ratio                     : 16:9
    Frame rate mode                          : Constant
    Frame rate                               : 23.976 (24000/1001) FPS
    Color space                              : YUV
    Chroma subsampling                       : 4:2:0
    Bit depth                                : 8 bits
    Scan type                                : Progressive
    Bits/(Pixel*Frame)                       : 0.459
    Stream size                              : 37.7 GiB (95%)
    Default                                  : Yes
    Forced                                   : No
    
    Audio #1
    ID                                       : 2
    Format                                   : DTS
    Format/Info                              : Digital Theater Systems
    Format profile                           : MA / Core
    Codec ID                                 : A_DTS
    Duration                                 : 3 h 56 min
    Bit rate mode                            : Variable / Constant
    Bit rate                                 : 1 053 kb/s / 768 kb/s
    Channel(s)                               : 1 channel
    Channel positions                        : Front: C
    Sampling rate                            : 48.0 kHz
    Frame rate                               : 93.750 FPS (512 SPF)
    Bit depth                                : 24 bits
    Compression mode                         : Lossless / Lossy
    Stream size                              : 1.74 GiB (4%)
    Title                                    : DTS-HD MA 1.0
    Language                                 : Chinese
    Default                                  : Yes
    Forced                                   : No
    
    Audio #2
    ID                                       : 3
    Format                                   : AC-3
    Format/Info                              : Audio Coding 3
    Codec ID                                 : A_AC3
    Duration                                 : 3 h 56 min
    Bit rate mode                            : Constant
    Bit rate                                 : 192 kb/s
    Channel(s)                               : 1 channel
    Channel positions                        : Front: C
    Sampling rate                            : 48.0 kHz
    Frame rate                               : 31.250 FPS (1536 SPF)
    Bit depth                                : 16 bits
    Compression mode                         : Lossy
    Stream size                              : 325 MiB (1%)
    Title                                    : Commentary by Film Critic Tony Rayns
    Language                                 : English
    Service kind                             : Complete Main
    Default                                  : No
    Forced                                   : No
    
    Text
    ID                                       : 4
    Format                                   : PGS
    Codec ID                                 : S_HDMV/PGS
    Codec ID/Info                            : Picture based subtitle format used on BDs/HD-DVDs
    Duration                                 : 3 h 55 min
    Bit rate                                 : 36.6 kb/s
    Count of elements                        : 4786
    Stream size                              : 61.6 MiB (0%)
    Title                                    : English
    Language                                 : English
    Default                                  : Yes
    Forced                                   : No
    
    Menu
    00:00:00.000                             : en:Uncertain Times
    00:04:07.873                             : en:The Little Park Gang
    00:10:18.201                             : en:Sly
    00:14:53.851                             : en:Friend And Foe
    00:22:10.913                             : en:Old Classmates
    00:30:19.776                             : en:Finding The Girl
    00:36:25.016                             : en:No Pushover
    00:39:40.712                             : en:The 217's Pool Hall
    00:43:04.582                             : en:Concert Night
    00:48:23.609                             : en:Confronting Tiger
    00:54:34.897                             : en:Paid Debt
    00:55:43.340                             : en:New Student
    00:58:30.215                             : en:Like Honey
    01:03:03.655                             : en:Missing Watch
    01:06:01.291                             : en:Sad Situation
    01:09:13.024                             : en:No Education
    01:15:54.216                             : en:Unfortunate Circumstances
    01:20:31.368                             : en:Movie Meeting
    01:23:08.192                             : en:New Ally
    01:29:22.983                             : en:Honey Returns
    01:37:39.979                             : en:Betrayal
    01:44:20.838                             : en:Taking The Leader
    01:57:22.285                             : en:Good Care
    01:58:50.540                             : en:Aftermath
    02:07:14.460                             : en:Short-Lived Plot
    02:10:12.221                             : en:Double Date
    02:15:12.938                             : en:Change Of Plans
    02:19:37.327                             : en:Nighttime Vengeance
    02:30:41.616                             : en:Secret Police
    02:40:57.273                             : en:Ming Comes Back
    02:47:43.512                             : en:Refusal
    02:49:14.353                             : en:Doubting Wang
    02:58:16.060                             : en:Ming's Reputation
    03:01:25.792                             : en:Paranoia
    03:02:54.755                             : en:Engaged
    03:06:33.891                             : en:Expulsion
    03:11:10.376                             : en:Small Party
    03:14:48.343                             : en:New Opportunities
    03:17:43.685                             : en:Same Situation
    03:22:51.409                             : en:Ma's Maid
    03:25:25.688                             : en:Home Alone
    03:28:49.642                             : en:Bitter Truths
    03:36:23.387                             : en:Facing Off
    03:40:40.978                             : en:Like The Others
    03:45:28.098                             : en:Taken Away
    03:51:03.683                             : en:Delivery Attempt
    Download:
     
  2. Loading...


Share This Page