Google Drive A.Bronx.Tale.1993.1080p.BluRay.X264-AMIABLE

Discussion in 'BDRip | 720p/1080p' started by DDLbase, Mar 25, 2021.

  1. DDLbase

    DDLbase Administrator Staff Member

    [​IMG]

    Rating: 7.8/10 based on 129,336 user ratings

    Genres: Crime, Drama, Romance

    A father becomes worried when a local gangster befriends his son in the Bronx in the 1960s.

    [​IMG]
    Code:
    General
    Complete name               : A.Bronx.Tale.1993.1080p.BluRay.X264-AMIABLE.mkv
    Format                      : Matroska
    Format version              : Version 2
    File size                   : 7.65 GiB
    Duration                    : 2 h 1 min
    Overall bit rate            : 9 015 kb/s
    Writing application         : x264.exe
    Writing library             : mkv2rls v1.4 (date: 2011 mar 29)
    
    Video
    ID                          : 1
    Format                      : AVC
    Format/Info                 : Advanced Video Codec
    Format profile              : [email protected]
    Format settings             : CABAC / 4 Ref Frames
    Format settings, CABAC      : Yes
    Format settings, Reference  : 4 frames
    Codec ID                    : V_MPEG4/ISO/AVC
    Duration                    : 2 h 1 min
    Bit rate                    : 8 373 kb/s
    Width                       : 1 920 pixels
    Height                      : 1 080 pixels
    Display aspect ratio        : 16:9
    Frame rate mode             : Constant
    Frame rate                  : 23.976 (24000/1001) FPS
    Color space                 : YUV
    Chroma subsampling          : 4:2:0
    Bit depth                   : 8 bits
    Scan type                   : Progressive
    Bits/(Pixel*Frame)          : 0.168
    Stream size                 : 6.96 GiB (91%)
    Writing library             : x264 core 125 r2200 999b753
    Encoding settings           : cabac=1 / ref=4 / deblock=1:0:0 / analyse=0x3:0x113 / me=umh / subme=8 / psy=1 / psy_rd=1.00:0.00 / mixed_ref=1 / me_range=16 / chroma_me=1 / trellis=1 / 8x8dct=1 / cqm=0 / deadzone=21,11 / fast_pskip=1 / chroma_qp_offset=-2 / threads=12 / lookahead_threads=2 / sliced_threads=0 / nr=0 / decimate=1 / interlaced=0 / bluray_compat=0 / constrained_intra=0 / bframes=3 / b_pyramid=2 / b_adapt=2 / b_bias=0 / direct=3 / weightb=1 / open_gop=0 / weightp=2 / keyint=240 / keyint_min=24 / scenecut=40 / intra_refresh=0 / rc_lookahead=50 / rc=2pass / mbtree=1 / bitrate=8373 / ratetol=1.0 / qcomp=0.60 / qpmin=0 / qpmax=69 / qpstep=4 / cplxblur=20.0 / qblur=0.5 / ip_ratio=1.40 / aq=1:1.00
    Language                    : English
    Default                     : Yes
    Forced                      : No
    
    Audio
    ID                          : 2
    Format                      : AC-3
    Format/Info                 : Audio Coding 3
    Commercial name             : Dolby Digital
    Codec ID                    : A_AC3
    Duration                    : 2 h 1 min
    Bit rate mode               : Constant
    Bit rate                    : 640 kb/s
    Channel(s)                  : 6 channels
    Channel(s)_Original         : 2 channels
    ChannelLayout_Original      : L R
    Sampling rate               : 48.0 kHz
    Frame rate                  : 31.250 FPS (1536 SPF)
    Compression mode            : Lossy
    Stream size                 : 556 MiB (7%)
    Language                    : English
    Service kind                : Complete Main
    Default                     : Yes
    Forced                      : No
    
    Text
    ID                          : 3
    Format                      : UTF-8
    Codec ID                    : S_TEXT/UTF8
    Codec ID/Info               : UTF-8 Plain Text
    Language                    : English
    Default                     : No
    Forced                      : No
    
    Menu
    00:00:00.000                : en:00:00:00.000
    00:12:44.681                : en:00:12:44.681
    00:25:32.114                : en:00:25:32.114
    00:33:09.446                : en:00:33:09.446
    00:46:20.528                : en:00:46:20.528
    00:54:55.334                : en:00:54:55.334
    01:04:19.022                : en:01:04:19.022
    01:11:43.299                : en:01:11:43.299
    01:23:00.893                : en:01:23:00.893
    01:28:50.700                : en:01:28:50.700
    01:40:22.934                : en:01:40:22.934
    01:51:39.610                : en:01:51:39.610
    Download - Mirror 1:
    Download - Mirror 2:
     
  2. Loading...


Share This Page