Google Drive A Game of Death 1945 BluRay 1080p DTS-HD MA 2.0 AVC REMUX-FraMeSToR

Discussion in 'BD REMUX | 1080p' started by DDLbase, Apr 4, 2020.

  1. DDLbase

    DDLbase Administrator Staff Member

    [​IMG]

    A Game of Death (1945)

    [​IMG] 5.8/10 [​IMG] 265

    Plot

    A remake of Richard Connell's famous short story, "The Most Dangerous Game," about a madman who hunts human prey on his personal island habitat.

    Movie Info
    • Rating: Approved
    • Genre: Adventure
    • Directed By: Robert Wise
    • Written By: Richard Connell (story "The Most Dangerous Game"), Norman Houston
    • Starring: John Loder, Audrey Long, Edgar Barrier, Russell Wade
    • Release Date: 07 Jun 1946
    • Runtime: 72 min
    Code:
     General
    Complete name                            : A.Game.of.Death.1945.BluRay.1080p.DTS-HD.MA.2.0.AVC.REMUX-FraMeSToR.mkv
    Format                                   : Matroska
    Format version                           : Version 4 / Version 2
    File size                                : 13.5 GiB
    Duration                                 : 1 h 12 min
    Overall bit rate mode                    : Variable
    Overall bit rate                         : 26.8 Mb/s
    Encoded date                             : UTC 2018-01-22 15:23:46
    Writing application                      : mkvmerge v20.0.0 ('I Am The Sun') 64-bit
    Writing library                          : libebml v1.3.5 + libmatroska v1.4.8
    
    Video
    ID                                       : 1
    Format                                   : AVC
    Format/Info                              : Advanced Video Codec
    Format profile                           : [email protected]
    Format settings                          : CABAC / 3 Ref Frames
    Format settings, CABAC                   : Yes
    Format settings, ReFrames                : 3 frames
    Format settings, GOP                     : M=3, N=12
    Codec ID                                 : V_MPEG4/ISO/AVC
    Duration                                 : 1 h 12 min
    Bit rate mode                            : Variable
    Bit rate                                 : 24.9 Mb/s
    Maximum bit rate                         : 32.3 Mb/s
    Width                                    : 1 920 pixels
    Height                                   : 1 080 pixels
    Display aspect ratio                     : 16:9
    Frame rate mode                          : Constant
    Frame rate                               : 23.976 (24000/1001) FPS
    Standard                                 : NTSC
    Color space                              : YUV
    Chroma subsampling                       : 4:2:0
    Bit depth                                : 8 bits
    Scan type                                : Progressive
    Bits/(Pixel*Frame)                       : 0.502
    Stream size                              : 12.6 GiB (93%)
    Default                                  : Yes
    Forced                                   : No
    Color range                              : Limited
    Color primaries                          : BT.709
    Transfer characteristics                 : BT.709
    Matrix coefficients                      : BT.709
    
    Audio #1
    ID                                       : 2
    Format                                   : DTS
    Format/Info                              : Digital Theater Systems
    Format profile                           : MA / Core
    Codec ID                                 : A_DTS
    Duration                                 : 1 h 12 min
    Bit rate mode                            : Variable / Constant
    Bit rate                                 : 1 536 kb/s / 1 509 kb/s
    Channel(s)                               : 2 channels
    Channel positions                        : Front: L R
    Sampling rate                            : 48.0 kHz
    Frame rate                               : 93.750 FPS (512 SPF)
    Bit depth                                : 16 bits
    Compression mode                         : Lossless / Lossy
    Stream size                              : 804 MiB (6%)
    Title                                    : DTS-HD MA 2.0
    Language                                 : English
    Default                                  : Yes
    Forced                                   : No
    
    Audio #2
    ID                                       : 3
    Format                                   : AC-3
    Format/Info                              : Audio Coding 3
    Codec ID                                 : A_AC3
    Duration                                 : 1 h 12 min
    Bit rate mode                            : Constant
    Bit rate                                 : 256 kb/s
    Channel(s)                               : 2 channels
    Channel positions                        : Front: L R
    Sampling rate                            : 48.0 kHz
    Frame rate                               : 31.250 FPS (1536 SPF)
    Bit depth                                : 16 bits
    Compression mode                         : Lossy
    Stream size                              : 132 MiB (1%)
    Title                                    : Commentary by Richard Harland Smith
    Language                                 : English
    Service kind                             : Complete Main
    Default                                  : No
    Forced                                   : No
    
    Text
    ID                                       : 4
    Format                                   : PGS
    Codec ID                                 : S_HDMV/PGS
    Codec ID/Info                            : Picture based subtitle format used on BDs/HD-DVDs
    Duration                                 : 1 h 9 min
    Bit rate                                 : 31.0 kb/s
    Count of elements                        : 1760
    Stream size                              : 15.3 MiB (0%)
    Title                                    : English
    Language                                 : English
    Default                                  : Yes
    Forced                                   : No
    
    Menu
    00:00:00.000                             : en:00:00:00.000
    00:07:43.672                             : en:00:07:43.672
    00:20:45.953                             : en:00:20:45.953
    00:24:56.328                             : en:00:24:56.328
    00:31:53.995                             : en:00:31:53.995
    00:44:27.790                             : en:00:44:27.790
    00:53:51.728                             : en:00:53:51.728
    01:07:51.276                             : en:01:07:51.276
    Download:
     
  2. Loading...


Share This Page