Google Drive A.Man.Called.Otto.2023.2160p.WEB-DL.DDP5.1.Atmos.HEVC-CMRG

Discussion in 'Web-DL / Webrip | 4K' started by DDLbase, Feb 28, 2023.

  1. DDLbase

    DDLbase Administrator Staff Member

    [​IMG]

    Rating: 7.6/10 based on 18,669 user ratings

    Genres: Comedy, Drama

    Otto is a grump who's given up on life following the loss of his wife and wants to end it all. When a young family moves in nearby, he meets his match in quick-witted Marisol, leading to a friendship that will turn his world around.

    [​IMG]
    Code:
    General
    Unique ID                   : 147076533831965689084960947094546856952 (0x6EA5E8F9D8E57A367680141DE0D8BBF8)
    Complete name               : A.Man.Called.Otto.2023.2160p.WEB-DL.DDP5.1.Atmos.HEVC-CMRG.mkv
    Format                      : Matroska
    Format version              : Version 4
    File size                   : 11.3 GiB
    Duration                    : 2 h 6 min
    Overall bit rate            : 12.8 Mb/s
    Writing application         : mkvmerge v70.0.0 ('Caught A Lite Sneeze') 64-bit
    Writing library             : libebml v1.4.2 + libmatroska v1.6.4
    
    Video
    ID                          : 1
    Format                      : HEVC
    Format/Info                 : High Efficiency Video Coding
    Format profile              : Main 10@L5@High
    Codec ID                    : V_MPEGH/ISO/HEVC
    Duration                    : 2 h 6 min
    Bit rate                    : 12.1 Mb/s
    Width                       : 3 840 pixels
    Height                      : 2 072 pixels
    Display aspect ratio        : 1.85:1
    Frame rate mode             : Constant
    Frame rate                  : 23.976 FPS
    Color space                 : YUV
    Chroma subsampling          : 4:2:0
    Bit depth                   : 10 bits
    Bits/(Pixel*Frame)          : 0.063
    Stream size                 : 10.6 GiB (94%)
    Language                    : English
    Default                     : Yes
    Forced                      : No
    Color range                 : Limited
    Color primaries             : BT.709
    Transfer characteristics    : BT.709
    Matrix coefficients         : BT.709
    
    Audio
    ID                          : 2
    Format                      : E-AC-3 JOC
    Format/Info                 : Enhanced AC-3 with Joint Object Coding
    Commercial name             : Dolby Digital Plus with Dolby Atmos
    Codec ID                    : A_EAC3
    Duration                    : 2 h 6 min
    Bit rate mode               : Constant
    Bit rate                    : 768 kb/s
    Channel(s)                  : 6 channels
    Channel layout              : L R C LFE Ls Rs
    Sampling rate               : 48.0 kHz
    Frame rate                  : 31.250 FPS (1536 SPF)
    Compression mode            : Lossy
    Stream size                 : 693 MiB (6%)
    Language                    : English
    Service kind                : Complete Main
    Default                     : Yes
    Forced                      : No
    Complexity index            : 16
    Number of dynamic objects   : 15
    Bed channel count           : 1 channel
    Bed channel configuration   : LFE
    
    Text #1
    ID                          : 3
    Format                      : UTF-8
    Codec ID                    : S_TEXT/UTF8
    Codec ID/Info               : UTF-8 Plain Text
    Duration                    : 1 h 59 min
    Bit rate                    : 67 b/s
    Frame rate                  : 0.287 FPS
    Count of elements           : 2058
    Stream size                 : 58.7 KiB (0%)
    Title                       : SDH
    Language                    : English
    Default                     : No
    Forced                      : No
    
    Text #2
    ID                          : 4
    Format                      : UTF-8
    Codec ID                    : S_TEXT/UTF8
    Codec ID/Info               : UTF-8 Plain Text
    Duration                    : 1 h 59 min
    Bit rate                    : 59 b/s
    Frame rate                  : 0.250 FPS
    Count of elements           : 1793
    Stream size                 : 52.1 KiB (0%)
    Language                    : English
    Default                     : No
    Forced                      : No
    
    Text #3
    ID                          : 5
    Format                      : UTF-8
    Codec ID                    : S_TEXT/UTF8
    Codec ID/Info               : UTF-8 Plain Text
    Duration                    : 1 h 59 min
    Bit rate                    : 66 b/s
    Frame rate                  : 0.277 FPS
    Count of elements           : 1991
    Stream size                 : 58.3 KiB (0%)
    Title                       : British SDH
    Language                    : English
    Default                     : No
    Forced                      : No
    
    Text #4
    ID                          : 6
    Format                      : UTF-8
    Codec ID                    : S_TEXT/UTF8
    Codec ID/Info               : UTF-8 Plain Text
    Duration                    : 1 h 59 min
    Bit rate                    : 57 b/s
    Frame rate                  : 0.246 FPS
    Count of elements           : 1761
    Stream size                 : 50.6 KiB (0%)
    Title                       : British
    Language                    : English
    Default                     : No
    Forced                      : No
    
    Text #5
    ID                          : 7
    Format                      : UTF-8
    Codec ID                    : S_TEXT/UTF8
    Codec ID/Info               : UTF-8 Plain Text
    Duration                    : 2 h 4 min
    Bit rate                    : 48 b/s
    Frame rate                  : 0.175 FPS
    Count of elements           : 1308
    Stream size                 : 44.6 KiB (0%)
    Language                    : Danish
    Default                     : No
    Forced                      : No
    
    Text #6
    ID                          : 8
    Format                      : UTF-8
    Codec ID                    : S_TEXT/UTF8
    Codec ID/Info               : UTF-8 Plain Text
    Duration                    : 2 h 4 min
    Bit rate                    : 51 b/s
    Frame rate                  : 0.222 FPS
    Count of elements           : 1662
    Stream size                 : 46.9 KiB (0%)
    Language                    : German
    Default                     : No
    Forced                      : No
    
    Text #7
    ID                          : 9
    Format                      : UTF-8
    Codec ID                    : S_TEXT/UTF8
    Codec ID/Info               : UTF-8 Plain Text
    Duration                    : 2 h 4 min
    Bit rate                    : 48 b/s
    Frame rate                  : 0.215 FPS
    Count of elements           : 1613
    Stream size                 : 44.2 KiB (0%)
    Language                    : Spanish
    Default                     : No
    Forced                      : No
    
    Text #8
    ID                          : 10
    Format                      : UTF-8
    Codec ID                    : S_TEXT/UTF8
    Codec ID/Info               : UTF-8 Plain Text
    Duration                    : 2 h 4 min
    Bit rate                    : 45 b/s
    Frame rate                  : 0.217 FPS
    Count of elements           : 1627
    Stream size                 : 41.9 KiB (0%)
    Title                       : Latin American
    Language                    : Spanish
    Default                     : No
    Forced                      : No
    
    Text #9
    ID                          : 11
    Format                      : UTF-8
    Codec ID                    : S_TEXT/UTF8
    Codec ID/Info               : UTF-8 Plain Text
    Duration                    : 2 h 4 min
    Bit rate                    : 46 b/s
    Frame rate                  : 0.224 FPS
    Count of elements           : 1679
    Stream size                 : 42.6 KiB (0%)
    Language                    : Finnish
    Default                     : No
    Forced                      : No
    
    Text #10
    ID                          : 12
    Format                      : UTF-8
    Codec ID                    : S_TEXT/UTF8
    Codec ID/Info               : UTF-8 Plain Text
    Duration                    : 2 h 4 min
    Bit rate                    : 45 b/s
    Frame rate                  : 0.197 FPS
    Count of elements           : 1474
    Stream size                 : 41.3 KiB (0%)
    Language                    : French
    Default                     : No
    Forced                      : No
    
    Text #11
    ID                          : 13
    Format                      : UTF-8
    Codec ID                    : S_TEXT/UTF8
    Codec ID/Info               : UTF-8 Plain Text
    Duration                    : 2 h 4 min
    Bit rate                    : 45 b/s
    Frame rate                  : 0.219 FPS
    Count of elements           : 1638
    Stream size                 : 41.7 KiB (0%)
    Language                    : Indonesian
    Default                     : No
    Forced                      : No
    
    Text #12
    ID                          : 14
    Format                      : UTF-8
    Codec ID                    : S_TEXT/UTF8
    Codec ID/Info               : UTF-8 Plain Text
    Duration                    : 2 h 4 min
    Bit rate                    : 49 b/s
    Frame rate                  : 0.221 FPS
    Count of elements           : 1656
    Stream size                 : 45.5 KiB (0%)
    Language                    : Korean
    Default                     : No
    Forced                      : No
    
    Text #13
    ID                          : 15
    Format                      : UTF-8
    Codec ID                    : S_TEXT/UTF8
    Codec ID/Info               : UTF-8 Plain Text
    Duration                    : 2 h 4 min
    Bit rate                    : 41 b/s
    Frame rate                  : 0.150 FPS
    Count of elements           : 1122
    Stream size                 : 37.9 KiB (0%)
    Language                    : Dutch
    Default                     : No
    Forced                      : No
    
    Text #14
    ID                          : 16
    Format                      : UTF-8
    Codec ID                    : S_TEXT/UTF8
    Codec ID/Info               : UTF-8 Plain Text
    Duration                    : 2 h 4 min
    Bit rate                    : 41 b/s
    Frame rate                  : 0.170 FPS
    Count of elements           : 1271
    Stream size                 : 37.7 KiB (0%)
    Language                    : Norwegian
    Default                     : No
    Forced                      : No
    
    Text #15
    ID                          : 17
    Format                      : UTF-8
    Codec ID                    : S_TEXT/UTF8
    Codec ID/Info               : UTF-8 Plain Text
    Duration                    : 2 h 4 min
    Bit rate                    : 48 b/s
    Frame rate                  : 0.209 FPS
    Count of elements           : 1560
    Stream size                 : 43.9 KiB (0%)
    Title                       : Brazilian
    Language                    : Portuguese
    Default                     : No
    Forced                      : No
    
    Text #16
    ID                          : 18
    Format                      : UTF-8
    Codec ID                    : S_TEXT/UTF8
    Codec ID/Info               : UTF-8 Plain Text
    Duration                    : 2 h 4 min
    Bit rate                    : 45 b/s
    Frame rate                  : 0.163 FPS
    Count of elements           : 1220
    Stream size                 : 41.3 KiB (0%)
    Language                    : Swedish
    Default                     : No
    Forced                      : No
    
    Text #17
    ID                          : 19
    Format                      : UTF-8
    Codec ID                    : S_TEXT/UTF8
    Codec ID/Info               : UTF-8 Plain Text
    Duration                    : 2 h 4 min
    Bit rate                    : 45 b/s
    Frame rate                  : 0.221 FPS
    Count of elements           : 1651
    Stream size                 : 41.2 KiB (0%)
    Title                       : Traditional
    Language                    : Chinese
    Default                     : No
    Forced                      : No
    
    Text #18
    ID                          : 20
    Format                      : UTF-8
    Codec ID                    : S_TEXT/UTF8
    Codec ID/Info               : UTF-8 Plain Text
    Duration                    : 2 h 4 min
    Bit rate                    : 40 b/s
    Frame rate                  : 0.222 FPS
    Count of elements           : 1665
    Stream size                 : 37.0 KiB (0%)
    Title                       : Mandarin Chinese Traditional
    Language                    : Chinese
    Default                     : No
    Forced                      : No
    
    Menu
    00:00:00.000                : en:Chapter 01
    00:08:48.445                : en:Chapter 02
    00:16:30.115                : en:Chapter 03
    00:23:32.203                : en:Chapter 04
    00:33:07.654                : en:Chapter 05
    00:40:29.262                : en:Chapter 06
    00:49:17.207                : en:Chapter 07
    00:55:53.436                : en:Chapter 08
    01:04:07.847                : en:Chapter 09
    01:11:51.561                : en:Chapter 10
    01:20:29.204                : en:Chapter 11
    01:28:34.773                : en:Chapter 12
    01:36:08.601                : en:Chapter 13
    01:44:22.887                : en:Chapter 14
    01:52:37.298                : en:Chapter 15
    01:57:16.619                : en:Chapter 1
    Download - Mirror 1:
    Download - Mirror 2:
    Download - Mirror 3:
     
  2. Loading...


Share This Page