Google Drive A Simple Favor 2018 1080p BluRay REMUX AVC TrueHD 7.1 - EPSiLON

Discussion in 'BD REMUX | 1080p' started by DDLbase, Apr 3, 2020.

  1. DDLbase

    DDLbase Administrator Staff Member

    [​IMG]

    A Simple Favor (2018)

    [​IMG] 6.8/10 [​IMG] 107,862

    Plot

    A Simple Favor is a 2018 American black comedy thriller film directed by Paul Feig from a screenplay by Jessica Sharzer, based on the 2017 novel of the same name by Darcey Bell. The film stars Anna Kendrick, Blake Lively, Henry Golding, Andrew Rannells, Linda Cardellini, Rupert Friend, and Jean Smart and follows a small town vlogger who tries to solve the disappearance of her mysterious and rich best friend.
    A Simple Favor was released in the United States on September 14, 2018 by Lionsgate. The film received generally positive reviews from critics, with praise for the plot twists and performances of Kendrick and Lively, and was a box office success, grossing $97 million worldwide on a $20 million budget.

    Movie Info
    • Rating: R
    • Genre: Comedy, Crime, Drama, Mystery, Thriller
    • Directed By: Paul Feig
    • Written By: Darcey Bell (based upon the novel by), Jessica Sharzer (screenplay by)
    • Starring: Anna Kendrick, Ian Ho, Joshua Satine, Glenda Braganza
    • Release Date: 14 Sep 2018
    • Runtime: 117 min
    • On Disk/Streaming: 18 Dec 2018
    • Box Office (USA): N/A
    • Awards: 3 wins & 4 nominations.
    • Studio: Lionsgate
    [​IMG][​IMG]

    Code:
    General
    Unique ID                                : 194762420095823159291363593122165331321 (0x9285E0B051351B9E4EA09AE0E47C9579)
    Complete name                            : A.Simple.Favor.2018.1080p.BluRay.REMUX.AVC.TrueHD.7.1-EPSiLON.mkv
    Format                                   : Matroska
    Format version                           : Version 4 / Version 2
    File size                                : 29.5 GiB
    Duration                                 : 1 h 56 min
    Overall bit rate mode                    : Variable
    Overall bit rate                         : 36.1 Mb/s
    Movie name                               : A Simple Favor (2018)
    Encoded date                             : UTC 2018-12-23 22:38:40
    Writing application                      : mkvmerge v29.0.0 ('Like It Or Not') 64-bit
    Writing library                          : libebml v1.3.6 + libmatroska v1.4.9
    
    Video
    ID                                       : 1
    Format                                   : AVC
    Format/Info                              : Advanced Video Codec
    Format profile                           : [email protected]
    Format settings                          : CABAC / 4 Ref Frames
    Format settings, CABAC                   : Yes
    Format settings, ReFrames                : 4 frames
    Codec ID                                 : V_MPEG4/ISO/AVC
    Duration                                 : 1 h 56 min
    Bit rate mode                            : Variable
    Bit rate                                 : 31.4 Mb/s
    Maximum bit rate                         : 37.0 Mb/s
    Width                                    : 1 920 pixels
    Height                                   : 1 080 pixels
    Display aspect ratio                     : 16:9
    Frame rate mode                          : Constant
    Frame rate                               : 23.976 (24000/1001) FPS
    Color space                              : YUV
    Chroma subsampling                       : 4:2:0
    Bit depth                                : 8 bits
    Scan type                                : Progressive
    Bits/(Pixel*Frame)                       : 0.631
    Stream size                              : 25.6 GiB (87%)
    Title                                    : MPEG-4 AVC Video / 31585 kbps / 1080p / 23.976 fps / 16:9 / High Profile 4.1
    Language                                 : English
    Default                                  : Yes
    Forced                                   : No
    
    Audio #1
    ID                                       : 2
    Format                                   : TrueHD
    Codec ID                                 : A_TRUEHD
    Duration                                 : 1 h 56 min
    Bit rate mode                            : Variable
    Bit rate                                 : 3 223 kb/s
    Maximum bit rate                         : 5 280 kb/s
    Channel(s)                               : 8 channels
    Channel positions                        : Front: L C R, Side: L R, Back: L R, LFE
    Sampling rate                            : 48.0 kHz
    Frame rate                               : 1 200.000 FPS (40 SPF)
    Compression mode                         : Lossless
    Stream size                              : 2.63 GiB (9%)
    Title                                    : Dolby TrueHD Audio / 7.1 / 48 kHz / 3223 kbps / 16-bit
    Language                                 : English
    Default                                  : Yes
    Forced                                   : No
    
    Audio #2
    ID                                       : 3
    Format                                   : AC-3
    Format/Info                              : Audio Coding 3
    Codec ID                                 : A_AC3
    Duration                                 : 1 h 56 min
    Bit rate mode                            : Constant
    Bit rate                                 : 640 kb/s
    Channel(s)                               : 6 channels
    Channel positions                        : Front: L C R, Side: L R, LFE
    Sampling rate                            : 48.0 kHz
    Frame rate                               : 31.250 FPS (1536 SPF)
    Bit depth                                : 16 bits
    Compression mode                         : Lossy
    Stream size                              : 535 MiB (2%)
    Title                                    : Compatibility Track / Dolby Digital Audio / 5.1-EX / 48 kHz / 640 kbps
    Language                                 : English
    Service kind                             : Complete Main
    Default                                  : No
    Forced                                   : No
    
    Audio #3
    ID                                       : 4
    Format                                   : AC-3
    Format/Info                              : Audio Coding 3
    Codec ID                                 : A_AC3
    Duration                                 : 1 h 56 min
    Bit rate mode                            : Constant
    Bit rate                                 : 224 kb/s
    Channel(s)                               : 2 channels
    Channel positions                        : Front: L R
    Sampling rate                            : 48.0 kHz
    Frame rate                               : 31.250 FPS (1536 SPF)
    Bit depth                                : 16 bits
    Compression mode                         : Lossy
    Stream size                              : 187 MiB (1%)
    Title                                    : Commentary by director Paul Feig
    Language                                 : English
    Service kind                             : Complete Main
    Default                                  : No
    Forced                                   : No
    
    Audio #4
    ID                                       : 5
    Format                                   : AC-3
    Format/Info                              : Audio Coding 3
    Codec ID                                 : A_AC3
    Duration                                 : 1 h 56 min
    Bit rate mode                            : Constant
    Bit rate                                 : 192 kb/s
    Channel(s)                               : 2 channels
    Channel positions                        : Front: L R
    Sampling rate                            : 48.0 kHz
    Frame rate                               : 31.250 FPS (1536 SPF)
    Bit depth                                : 16 bits
    Compression mode                         : Lossy
    Stream size                              : 160 MiB (1%)
    Title                                    : Commentary by director Paul Feig, actors Anna Kendrick, Blake Lively, Jean Smart and Bashir Salahuddin
    Language                                 : English
    Service kind                             : Complete Main
    Default                                  : No
    Forced                                   : No
    
    Audio #5
    ID                                       : 6
    Format                                   : AC-3
    Format/Info                              : Audio Coding 3
    Codec ID                                 : A_AC3
    Duration                                 : 1 h 56 min
    Bit rate mode                            : Constant
    Bit rate                                 : 192 kb/s
    Channel(s)                               : 2 channels
    Channel positions                        : Front: L R
    Sampling rate                            : 48.0 kHz
    Frame rate                               : 31.250 FPS (1536 SPF)
    Bit depth                                : 16 bits
    Compression mode                         : Lossy
    Stream size                              : 160 MiB (1%)
    Title                                    : Commentary by director Paul Feig, writer Jessica Sharzer, producer Jessie Henderson, cinematographer Jonathan Schwartzman & costume designer Renee Ehrich Kalfus
    Language                                 : English
    Service kind                             : Complete Main
    Default                                  : No
    Forced                                   : No
    
    Text #1
    ID                                       : 7
    Format                                   : PGS
    Codec ID                                 : S_HDMV/PGS
    Codec ID/Info                            : Picture based subtitle format used on BDs/HD-DVDs
    Duration                                 : 1 h 51 min
    Bit rate                                 : 58.3 kb/s
    Count of elements                        : 4902
    Stream size                              : 46.7 MiB (0%)
    Title                                    : SDH
    Language                                 : English
    Default                                  : No
    Forced                                   : No
    
    Text #2
    ID                                       : 8
    Format                                   : PGS
    Codec ID                                 : S_HDMV/PGS
    Codec ID/Info                            : Picture based subtitle format used on BDs/HD-DVDs
    Duration                                 : 1 h 56 min
    Bit rate                                 : 70.1 kb/s
    Count of elements                        : 4106
    Stream size                              : 58.5 MiB (0%)
    Title                                    : SDH
    Language                                 : French
    Default                                  : No
    Forced                                   : No
    
    Text #3
    ID                                       : 9
    Format                                   : PGS
    Codec ID                                 : S_HDMV/PGS
    Codec ID/Info                            : Picture based subtitle format used on BDs/HD-DVDs
    Duration                                 : 1 h 50 min
    Bit rate                                 : 75.6 kb/s
    Count of elements                        : 4390
    Stream size                              : 59.6 MiB (0%)
    Title                                    : Latin American
    Language                                 : Spanish
    Default                                  : No
    Forced                                   : No
    
    Menu
    00:00:00.000                             : en:Chapter 1
    00:06:33.893                             : en:Chapter 2
    00:13:55.752                             : en:Chapter 3
    00:23:11.056                             : en:Chapter 4
    00:29:20.133                             : en:Chapter 5
    00:36:02.827                             : en:Chapter 6
    00:41:57.431                             : en:Chapter 7
    00:53:06.183                             : en:Chapter 8
    01:00:35.674                             : en:Chapter 9
    01:05:24.087                             : en:Chapter 10
    01:12:52.618                             : en:Chapter 11
    01:20:04.508                             : en:Chapter 12
    01:27:31.830                             : en:Chapter 13
    01:37:34.181                             : en:Chapter 14
    01:41:52.565                             : en:Chapter 15
    01:50:20.489                             : en:Chapter 16
    Download:
     
  2. Loading...


Share This Page