Google Drive About.Last.Night.1986.1080p.BluRay.x264-RETREAT

Discussion in 'BDRip | 720p/1080p' started by DDLbase, Sep 25, 2020.

  1. DDLbase

    DDLbase Administrator Staff Member

    [​IMG]

    Rating: 6.3/10 based on 14,169 user ratings

    Genres: Comedy, Drama, Romance

    A man and woman meet and try to have a romantic affair, despite their personal problems and the interference of their disapproving friends.

    [​IMG]
    Code:
    General
    Unique ID                   : 247225185083951039284851011289625914352 (0xB9FDD6B4C7B642E68B0FD3B77E4FEBF0)
    Complete name               : About.Last.Night.1986.1080p.BluRay.x264-RETREAT.mkv
    Format                      : Matroska
    Format version              : Version 2
    File size                   : 7.94 GiB
    Duration                    : 1 h 53 min
    Overall bit rate            : 10.0 Mb/s
    Encoded date                : UTC 2009-08-13 01:34:30
    Writing application         : mkvmerge v2.9.7 ('Tenderness') built on Jul  1 2009 18:43:35
    Writing library             : libebml v0.7.7 + libmatroska v0.8.1
    
    Video
    ID                          : 1
    Format                      : AVC
    Format/Info                 : Advanced Video Codec
    Format profile              : [email protected]
    Format settings             : CABAC / 4 Ref Frames
    Format settings, CABAC      : Yes
    Format settings, Reference  : 4 frames
    Codec ID                    : V_MPEG4/ISO/AVC
    Duration                    : 1 h 53 min
    Bit rate                    : 9 401 kb/s
    Width                       : 1 920 pixels
    Height                      : 1 040 pixels
    Display aspect ratio        : 1.85:1
    Frame rate mode             : Constant
    Frame rate                  : 23.976 FPS
    Color space                 : YUV
    Chroma subsampling          : 4:2:0
    Bit depth                   : 8 bits
    Scan type                   : Progressive
    Bits/(Pixel*Frame)          : 0.196
    Stream size                 : 7.28 GiB (92%)
    Writing library             : x264 core 67 r1160M 79377d7
    Encoding settings           : cabac=1 / ref=4 / deblock=1:0:0 / analyse=0x3:0x133 / me=umh / subme=7 / psy_rd=1.0:0.0 / mixed_ref=1 / me_range=16 / chroma_me=1 / trellis=1 / 8x8dct=1 / cqm=0 / deadzone=21,11 / chroma_qp_offset=-2 / threads=6 / nr=0 / decimate=1 / mbaff=0 / bframes=3 / b_pyramid=1 / b_adapt=1 / b_bias=0 / direct=1 / wpredb=1 / keyint=250 / keyint_min=25 / scenecut=40 / rc=2pass / bitrate=9401 / ratetol=1.0 / qcomp=0.60 / qpmin=10 / qpmax=51 / qpstep=4 / cplxblur=20.0 / qblur=0.5 / ip_ratio=1.40 / pb_ratio=1.30 / aq=1:1.00
    Language                    : English
    Default                     : Yes
    Forced                      : No
    
    Audio
    ID                          : 2
    Format                      : AC-3
    Format/Info                 : Audio Coding 3
    Commercial name             : Dolby Digital
    Codec ID                    : A_AC3
    Duration                    : 1 h 53 min
    Bit rate mode               : Constant
    Bit rate                    : 640 kb/s
    Channel(s)                  : 6 channels
    Channel layout              : L R C LFE Ls Rs
    Sampling rate               : 48.0 kHz
    Frame rate                  : 31.250 FPS (1536 SPF)
    Compression mode            : Lossy
    Stream size                 : 518 MiB (6%)
    Language                    : English
    Service kind                : Complete Main
    Default                     : Yes
    Forced                      : No
    
    Text
    ID                          : 3
    Format                      : UTF-8
    Codec ID                    : S_TEXT/UTF8
    Codec ID/Info               : UTF-8 Plain Text
    Language                    : English
    Default                     : Yes
    Forced                      : No
    Download:
     
  2. Loading...


Share This Page