Google Drive Adverse.2020.2160p.WEB-DL.DDP5.1.HEVC-TOMMY

Discussion in 'Web-DL / Webrip | 4K' started by DDLbase, Mar 10, 2021.

  1. DDLbase

    DDLbase Administrator Staff Member

    [​IMG]

    Rating: 7.2/10 based on 5,858 user ratings

    Genres: Crime, Thriller

    A rideshare driver discovers that his sister is in debt to a dangerous crime syndicate.

    [​IMG]
    Code:
    General
    Unique ID                   : 188470501332880962991642562547126699936 (0x8DCA19249F64B19E7C4F69A090D107A0)
    Complete name               : Adverse.2020.2160p.WEB-DL.DDP5.1.HEVC-TOMMY.mkv
    Format                      : Matroska
    Format version              : Version 4
    File size                   : 10.4 GiB
    Duration                    : 1 h 34 min
    Overall bit rate            : 15.8 Mb/s
    Encoded date                : UTC 2021-03-10 09:50:36
    Writing application         : mkvmerge v19.0.0 ('Brave Captain') 64-bit
    Writing library             : libebml v1.3.5 + libmatroska v1.4.8
    
    Video
    ID                          : 1
    Format                      : HEVC
    Format/Info                 : High Efficiency Video Coding
    Format profile              : [email protected]@Main
    Codec ID                    : V_MPEGH/ISO/HEVC
    Duration                    : 1 h 34 min
    Bit rate                    : 15.1 Mb/s
    Width                       : 3 840 pixels
    Height                      : 2 160 pixels
    Display aspect ratio        : 16:9
    Frame rate mode             : Constant
    Frame rate                  : 23.976 (24000/1001) FPS
    Color space                 : YUV
    Chroma subsampling          : 4:2:0
    Bit depth                   : 8 bits
    Bits/(Pixel*Frame)          : 0.076
    Stream size                 : 9.93 GiB (96%)
    Default                     : Yes
    Forced                      : No
    Color range                 : Limited
    Color primaries             : BT.709
    Transfer characteristics    : BT.709
    Matrix coefficients         : BT.709
    
    Audio
    ID                          : 2
    Format                      : E-AC-3
    Format/Info                 : Enhanced AC-3
    Commercial name             : Dolby Digital Plus
    Codec ID                    : A_EAC3
    Duration                    : 1 h 34 min
    Bit rate mode               : Constant
    Bit rate                    : 640 kb/s
    Channel(s)                  : 6 channels
    Channel layout              : L R C LFE Ls Rs
    Sampling rate               : 48.0 kHz
    Frame rate                  : 31.250 FPS (1536 SPF)
    Compression mode            : Lossy
    Stream size                 : 431 MiB (4%)
    Language                    : English
    Service kind                : Complete Main
    Default                     : Yes
    Forced                      : No
    
    Text
    ID                          : 3
    Format                      : UTF-8
    Codec ID                    : S_TEXT/UTF8
    Codec ID/Info               : UTF-8 Plain Text
    Duration                    : 1 h 29 min
    Bit rate                    : 47 b/s
    Count of elements           : 1141
    Stream size                 : 31.2 KiB (0%)
    Title                       : English (SDH)
    Language                    : English
    Default                     : No
    Forced                      : No
    Download - Mirror 1:
    Download - Mirror 2:
     
  2. Loading...


Share This Page