Google Drive AIR.2023.2160p.AMZN.WEB-DL.DDP5.1.Atmos.DV.HDR.H.265-FLUX

Discussion in 'Web-DL / Webrip | 4K' started by DDLbase, May 12, 2023.

  1. DDLbase

    DDLbase Administrator Staff Member

    [​IMG]

    Rating: 7.7/10 based on 26,772 user ratings

    Genres: Drama, Sport

    Follows the history of shoe salesman Sonny Vaccaro, and how he led Nike in its pursuit of the greatest athlete in the history of basketball, Michael Jordan.

    [​IMG]
    Code:
    General
    Unique ID                   : 1126009523786352927182795243827368196 (0xD8DC8E468A236E3507E92A10121104)
    Complete name               : AIR.2023.2160p.AMZN.WEB-DL.DDP5.1.Atmos.DV.HDR.H.265-FLUX.mkv
    Format                      : Matroska
    Format version              : Version 4
    File size                   : 12.1 GiB
    Duration                    : 1 h 54 min
    Overall bit rate            : 15.2 Mb/s
    Writing application         : mkvmerge v75.0.0 ('Goliath') 64-bit
    Writing library             : libebml v1.4.4 + libmatroska v1.7.1
    
    Video
    ID                          : 1
    Format                      : HEVC
    Format/Info                 : High Efficiency Video Coding
    Format profile              : Main [email protected]@Main
    HDR format                  : Dolby Vision, Version 1.0, dvhe.08.06, BL+RPU, HDR10 compatible / SMPTE ST 2094 App 4, Version 1, HDR10+ Profile B compatible
    Codec ID                    : V_MPEGH/ISO/HEVC
    Duration                    : 1 h 54 min
    Bit rate                    : 14.6 Mb/s
    Width                       : 3 840 pixels
    Height                      : 2 080 pixels
    Display aspect ratio        : 1.85:1
    Frame rate mode             : Constant
    Frame rate                  : 24.000 FPS
    Color space                 : YUV
    Chroma subsampling          : 4:2:0
    Bit depth                   : 10 bits
    Bits/(Pixel*Frame)          : 0.076
    Stream size                 : 11.6 GiB (96%)
    Language                    : English
    Default                     : Yes
    Forced                      : No
    Color range                 : Limited
    Color primaries             : BT.2020
    Transfer characteristics    : PQ
    Matrix coefficients         : BT.2020 non-constant
    Mastering display color pri : Display P3
    Mastering display luminance : min: 0.0001 cd/m2, max: 1000 cd/m2
    Maximum Content Light Level : 679 cd/m2
    Maximum Frame-Average Light : 246 cd/m2
    
    Audio
    ID                          : 2
    Format                      : E-AC-3 JOC
    Format/Info                 : Enhanced AC-3 with Joint Object Coding
    Commercial name             : Dolby Digital Plus with Dolby Atmos
    Codec ID                    : A_EAC3
    Duration                    : 1 h 54 min
    Bit rate mode               : Constant
    Bit rate                    : 576 kb/s
    Channel(s)                  : 6 channels
    Channel layout              : L R C LFE Ls Rs
    Sampling rate               : 48.0 kHz
    Frame rate                  : 31.250 FPS (1536 SPF)
    Compression mode            : Lossy
    Stream size                 : 470 MiB (4%)
    Language                    : English
    Service kind                : Complete Main
    Default                     : Yes
    Forced                      : No
    Complexity index            : 16
    Number of dynamic objects   : 15
    Bed channel count           : 1 channel
    Bed channel configuration   : LFE
    
    Text #1
    ID                          : 3
    Format                      : UTF-8
    Codec ID                    : S_TEXT/UTF8
    Codec ID/Info               : UTF-8 Plain Text
    Duration                    : 1 h 47 min
    Bit rate                    : 95 b/s
    Frame rate                  : 0.347 FPS
    Count of elements           : 2239
    Stream size                 : 75.6 KiB (0%)
    Language                    : English
    Default                     : No
    Forced                      : No
    
    Text #2
    ID                          : 4
    Format                      : UTF-8
    Codec ID                    : S_TEXT/UTF8
    Codec ID/Info               : UTF-8 Plain Text
    Duration                    : 1 h 51 min
    Bit rate                    : 98 b/s
    Frame rate                  : 0.357 FPS
    Count of elements           : 2385
    Stream size                 : 80.6 KiB (0%)
    Title                       : SDH
    Language                    : English
    Default                     : No
    Forced                      : No
    
    Text #3
    ID                          : 5
    Format                      : UTF-8
    Codec ID                    : S_TEXT/UTF8
    Codec ID/Info               : UTF-8 Plain Text
    Duration                    : 1 h 50 min
    Bit rate                    : 124 b/s
    Frame rate                  : 0.264 FPS
    Count of elements           : 1751
    Stream size                 : 100 KiB (0%)
    Language                    : Arabic
    Default                     : No
    Forced                      : No
    
    Text #4
    ID                          : 6
    Format                      : UTF-8
    Codec ID                    : S_TEXT/UTF8
    Codec ID/Info               : UTF-8 Plain Text
    Duration                    : 1 h 50 min
    Bit rate                    : 72 b/s
    Frame rate                  : 0.261 FPS
    Count of elements           : 1734
    Stream size                 : 58.8 KiB (0%)
    Title                       : European
    Language                    : Catalan
    Default                     : No
    Forced                      : No
    
    Text #5
    ID                          : 7
    Format                      : UTF-8
    Codec ID                    : S_TEXT/UTF8
    Codec ID/Info               : UTF-8 Plain Text
    Duration                    : 1 h 50 min
    Bit rate                    : 72 b/s
    Frame rate                  : 0.261 FPS
    Count of elements           : 1732
    Stream size                 : 58.6 KiB (0%)
    Language                    : Czech
    Default                     : No
    Forced                      : No
    
    Text #6
    ID                          : 8
    Format                      : UTF-8
    Codec ID                    : S_TEXT/UTF8
    Codec ID/Info               : UTF-8 Plain Text
    Duration                    : 1 h 50 min
    Bit rate                    : 71 b/s
    Frame rate                  : 0.260 FPS
    Count of elements           : 1722
    Stream size                 : 57.6 KiB (0%)
    Language                    : Danish
    Default                     : No
    Forced                      : No
    
    Text #7
    ID                          : 9
    Format                      : UTF-8
    Codec ID                    : S_TEXT/UTF8
    Codec ID/Info               : UTF-8 Plain Text
    Duration                    : 1 h 49 min
    Bit rate                    : 77 b/s
    Frame rate                  : 0.259 FPS
    Count of elements           : 1705
    Stream size                 : 62.0 KiB (0%)
    Language                    : German
    Default                     : No
    Forced                      : No
    
    Text #8
    ID                          : 10
    Format                      : UTF-8
    Codec ID                    : S_TEXT/UTF8
    Codec ID/Info               : UTF-8 Plain Text
    Duration                    : 1 h 50 min
    Bit rate                    : 132 b/s
    Frame rate                  : 0.263 FPS
    Count of elements           : 1742
    Stream size                 : 108 KiB (0%)
    Language                    : Greek
    Default                     : No
    Forced                      : No
    
    Text #9
    ID                          : 11
    Format                      : UTF-8
    Codec ID                    : S_TEXT/UTF8
    Codec ID/Info               : UTF-8 Plain Text
    Duration                    : 1 h 50 min
    Bit rate                    : 73 b/s
    Frame rate                  : 0.262 FPS
    Count of elements           : 1736
    Stream size                 : 59.7 KiB (0%)
    Title                       : Latin American
    Language                    : Spanish
    Default                     : No
    Forced                      : No
    
    Text #10
    ID                          : 12
    Format                      : UTF-8
    Codec ID                    : S_TEXT/UTF8
    Codec ID/Info               : UTF-8 Plain Text
    Duration                    : 1 h 50 min
    Bit rate                    : 72 b/s
    Frame rate                  : 0.261 FPS
    Count of elements           : 1734
    Stream size                 : 58.8 KiB (0%)
    Language                    : Spanish
    Default                     : No
    Forced                      : No
    
    Text #11
    ID                          : 13
    Format                      : UTF-8
    Codec ID                    : S_TEXT/UTF8
    Codec ID/Info               : UTF-8 Plain Text
    Duration                    : 1 h 50 min
    Bit rate                    : 72 b/s
    Frame rate                  : 0.262 FPS
    Count of elements           : 1736
    Stream size                 : 58.8 KiB (0%)
    Title                       : European
    Language                    : Basque
    Default                     : No
    Forced                      : No
    
    Text #12
    ID                          : 14
    Format                      : UTF-8
    Codec ID                    : S_TEXT/UTF8
    Codec ID/Info               : UTF-8 Plain Text
    Duration                    : 1 h 50 min
    Bit rate                    : 80 b/s
    Frame rate                  : 0.259 FPS
    Count of elements           : 1718
    Stream size                 : 65.2 KiB (0%)
    Language                    : Finnish
    Default                     : No
    Forced                      : No
    
    Text #13
    ID                          : 15
    Format                      : UTF-8
    Codec ID                    : S_TEXT/UTF8
    Codec ID/Info               : UTF-8 Plain Text
    Duration                    : 1 h 50 min
    Bit rate                    : 80 b/s
    Frame rate                  : 0.259 FPS
    Count of elements           : 1718
    Stream size                 : 65.2 KiB (0%)
    Language                    : fil
    Default                     : No
    Forced                      : No
    
    Text #14
    ID                          : 16
    Format                      : UTF-8
    Codec ID                    : S_TEXT/UTF8
    Codec ID/Info               : UTF-8 Plain Text
    Duration                    : 1 h 50 min
    Bit rate                    : 72 b/s
    Frame rate                  : 0.260 FPS
    Count of elements           : 1728
    Stream size                 : 58.4 KiB (0%)
    Title                       : Canadian
    Language                    : French
    Default                     : No
    Forced                      : No
    
    Text #15
    ID                          : 17
    Format                      : UTF-8
    Codec ID                    : S_TEXT/UTF8
    Codec ID/Info               : UTF-8 Plain Text
    Duration                    : 1 h 50 min
    Bit rate                    : 76 b/s
    Frame rate                  : 0.261 FPS
    Count of elements           : 1730
    Stream size                 : 61.6 KiB (0%)
    Language                    : French
    Default                     : No
    Forced                      : No
    
    Text #16
    ID                          : 18
    Format                      : UTF-8
    Codec ID                    : S_TEXT/UTF8
    Codec ID/Info               : UTF-8 Plain Text
    Duration                    : 1 h 50 min
    Bit rate                    : 66 b/s
    Frame rate                  : 0.261 FPS
    Count of elements           : 1732
    Stream size                 : 54.2 KiB (0%)
    Title                       : European
    Language                    : Galician
    Default                     : No
    Forced                      : No
    
    Text #17
    ID                          : 19
    Format                      : UTF-8
    Codec ID                    : S_TEXT/UTF8
    Codec ID/Info               : UTF-8 Plain Text
    Duration                    : 1 h 50 min
    Bit rate                    : 120 b/s
    Frame rate                  : 0.264 FPS
    Count of elements           : 1750
    Stream size                 : 97.6 KiB (0%)
    Language                    : Hebrew
    Default                     : No
    Forced                      : No
    
    Text #18
    ID                          : 20
    Format                      : UTF-8
    Codec ID                    : S_TEXT/UTF8
    Codec ID/Info               : UTF-8 Plain Text
    Duration                    : 1 h 50 min
    Bit rate                    : 189 b/s
    Frame rate                  : 0.264 FPS
    Count of elements           : 1749
    Stream size                 : 154 KiB (0%)
    Language                    : Hindi
    Default                     : No
    Forced                      : No
    
    Text #19
    ID                          : 21
    Format                      : UTF-8
    Codec ID                    : S_TEXT/UTF8
    Codec ID/Info               : UTF-8 Plain Text
    Duration                    : 1 h 50 min
    Bit rate                    : 79 b/s
    Frame rate                  : 0.261 FPS
    Count of elements           : 1734
    Stream size                 : 64.5 KiB (0%)
    Language                    : Hungarian
    Default                     : No
    Forced                      : No
    
    Text #20
    ID                          : 22
    Format                      : UTF-8
    Codec ID                    : S_TEXT/UTF8
    Codec ID/Info               : UTF-8 Plain Text
    Duration                    : 1 h 50 min
    Bit rate                    : 73 b/s
    Frame rate                  : 0.262 FPS
    Count of elements           : 1736
    Stream size                 : 59.2 KiB (0%)
    Language                    : Indonesian
    Default                     : No
    Forced                      : No
    
    Text #21
    ID                          : 23
    Format                      : UTF-8
    Codec ID                    : S_TEXT/UTF8
    Codec ID/Info               : UTF-8 Plain Text
    Duration                    : 1 h 49 min
    Bit rate                    : 74 b/s
    Frame rate                  : 0.261 FPS
    Count of elements           : 1720
    Stream size                 : 60.2 KiB (0%)
    Language                    : Italian
    Default                     : No
    Forced                      : No
    
    Text #22
    ID                          : 24
    Format                      : UTF-8
    Codec ID                    : S_TEXT/UTF8
    Codec ID/Info               : UTF-8 Plain Text
    Duration                    : 1 h 50 min
    Bit rate                    : 64 b/s
    Frame rate                  : 0.241 FPS
    Count of elements           : 1595
    Stream size                 : 51.8 KiB (0%)
    Language                    : Japanese
    Default                     : No
    Forced                      : No
    
    Text #23
    ID                          : 25
    Format                      : UTF-8
    Codec ID                    : S_TEXT/UTF8
    Codec ID/Info               : UTF-8 Plain Text
    Duration                    : 1 h 50 min
    Bit rate                    : 192 b/s
    Frame rate                  : 0.264 FPS
    Count of elements           : 1751
    Stream size                 : 156 KiB (0%)
    Language                    : Kannada
    Default                     : No
    Forced                      : No
    
    Text #24
    ID                          : 26
    Format                      : UTF-8
    Codec ID                    : S_TEXT/UTF8
    Codec ID/Info               : UTF-8 Plain Text
    Duration                    : 1 h 50 min
    Bit rate                    : 71 b/s
    Frame rate                  : 0.261 FPS
    Count of elements           : 1733
    Stream size                 : 57.7 KiB (0%)
    Language                    : Korean
    Default                     : No
    Forced                      : No
    
    Text #25
    ID                          : 27
    Format                      : UTF-8
    Codec ID                    : S_TEXT/UTF8
    Codec ID/Info               : UTF-8 Plain Text
    Duration                    : 1 h 50 min
    Bit rate                    : 230 b/s
    Frame rate                  : 0.264 FPS
    Count of elements           : 1751
    Stream size                 : 187 KiB (0%)
    Language                    : Malayalam
    Default                     : No
    Forced                      : No
    
    Text #26
    ID                          : 28
    Format                      : UTF-8
    Codec ID                    : S_TEXT/UTF8
    Codec ID/Info               : UTF-8 Plain Text
    Duration                    : 1 h 50 min
    Bit rate                    : 74 b/s
    Frame rate                  : 0.261 FPS
    Count of elements           : 1732
    Stream size                 : 60.1 KiB (0%)
    Language                    : Malay
    Default                     : No
    Forced                      : No
    
    Text #27
    ID                          : 29
    Format                      : UTF-8
    Codec ID                    : S_TEXT/UTF8
    Codec ID/Info               : UTF-8 Plain Text
    Duration                    : 1 h 50 min
    Bit rate                    : 72 b/s
    Frame rate                  : 0.260 FPS
    Count of elements           : 1726
    Stream size                 : 59.0 KiB (0%)
    Language                    : Norwegian Bokmal
    Default                     : No
    Forced                      : No
    
    Text #28
    ID                          : 30
    Format                      : UTF-8
    Codec ID                    : S_TEXT/UTF8
    Codec ID/Info               : UTF-8 Plain Text
    Duration                    : 1 h 50 min
    Bit rate                    : 73 b/s
    Frame rate                  : 0.260 FPS
    Count of elements           : 1724
    Stream size                 : 59.8 KiB (0%)
    Language                    : Dutch
    Default                     : No
    Forced                      : No
    
    Text #29
    ID                          : 31
    Format                      : UTF-8
    Codec ID                    : S_TEXT/UTF8
    Codec ID/Info               : UTF-8 Plain Text
    Duration                    : 1 h 50 min
    Bit rate                    : 71 b/s
    Frame rate                  : 0.261 FPS
    Count of elements           : 1732
    Stream size                 : 58.1 KiB (0%)
    Language                    : Polish
    Default                     : No
    Forced                      : No
    
    Text #30
    ID                          : 32
    Format                      : UTF-8
    Codec ID                    : S_TEXT/UTF8
    Codec ID/Info               : UTF-8 Plain Text
    Duration                    : 1 h 50 min
    Bit rate                    : 73 b/s
    Frame rate                  : 0.261 FPS
    Count of elements           : 1731
    Stream size                 : 59.4 KiB (0%)
    Title                       : Brazilian
    Language                    : Portuguese
    Default                     : No
    Forced                      : No
    
    Text #31
    ID                          : 33
    Format                      : UTF-8
    Codec ID                    : S_TEXT/UTF8
    Codec ID/Info               : UTF-8 Plain Text
    Duration                    : 1 h 50 min
    Bit rate                    : 77 b/s
    Frame rate                  : 0.261 FPS
    Count of elements           : 1734
    Stream size                 : 63.0 KiB (0%)
    Language                    : Portuguese
    Default                     : No
    Forced                      : No
    
    Text #32
    ID                          : 34
    Format                      : UTF-8
    Codec ID                    : S_TEXT/UTF8
    Codec ID/Info               : UTF-8 Plain Text
    Duration                    : 1 h 50 min
    Bit rate                    : 80 b/s
    Frame rate                  : 0.261 FPS
    Count of elements           : 1731
    Stream size                 : 65.3 KiB (0%)
    Language                    : Romanian
    Default                     : No
    Forced                      : No
    
    Text #33
    ID                          : 35
    Format                      : UTF-8
    Codec ID                    : S_TEXT/UTF8
    Codec ID/Info               : UTF-8 Plain Text
    Duration                    : 1 h 50 min
    Bit rate                    : 125 b/s
    Frame rate                  : 0.263 FPS
    Count of elements           : 1746
    Stream size                 : 102 KiB (0%)
    Language                    : Russian
    Default                     : No
    Forced                      : No
    
    Text #34
    ID                          : 36
    Format                      : UTF-8
    Codec ID                    : S_TEXT/UTF8
    Codec ID/Info               : UTF-8 Plain Text
    Duration                    : 1 h 50 min
    Bit rate                    : 75 b/s
    Frame rate                  : 0.261 FPS
    Count of elements           : 1730
    Stream size                 : 60.8 KiB (0%)
    Language                    : Swedish
    Default                     : No
    Forced                      : No
    
    Text #35
    ID                          : 37
    Format                      : UTF-8
    Codec ID                    : S_TEXT/UTF8
    Codec ID/Info               : UTF-8 Plain Text
    Duration                    : 1 h 50 min
    Bit rate                    : 201 b/s
    Frame rate                  : 0.264 FPS
    Count of elements           : 1751
    Stream size                 : 163 KiB (0%)
    Language                    : Tamil
    Default                     : No
    Forced                      : No
    
    Text #36
    ID                          : 38
    Format                      : UTF-8
    Codec ID                    : S_TEXT/UTF8
    Codec ID/Info               : UTF-8 Plain Text
    Duration                    : 1 h 50 min
    Bit rate                    : 197 b/s
    Frame rate                  : 0.264 FPS
    Count of elements           : 1750
    Stream size                 : 160 KiB (0%)
    Language                    : Telugu
    Default                     : No
    Forced                      : No
    
    Text #37
    ID                          : 39
    Format                      : UTF-8
    Codec ID                    : S_TEXT/UTF8
    Codec ID/Info               : UTF-8 Plain Text
    Duration                    : 1 h 50 min
    Bit rate                    : 191 b/s
    Frame rate                  : 0.264 FPS
    Count of elements           : 1752
    Stream size                 : 155 KiB (0%)
    Language                    : Thai
    Default                     : No
    Forced                      : No
    
    Text #38
    ID                          : 40
    Format                      : UTF-8
    Codec ID                    : S_TEXT/UTF8
    Codec ID/Info               : UTF-8 Plain Text
    Duration                    : 1 h 50 min
    Bit rate                    : 74 b/s
    Frame rate                  : 0.261 FPS
    Count of elements           : 1734
    Stream size                 : 60.1 KiB (0%)
    Language                    : Turkish
    Default                     : No
    Forced                      : No
    
    Text #39
    ID                          : 41
    Format                      : UTF-8
    Codec ID                    : S_TEXT/UTF8
    Codec ID/Info               : UTF-8 Plain Text
    Duration                    : 1 h 50 min
    Bit rate                    : 119 b/s
    Frame rate                  : 0.263 FPS
    Count of elements           : 1744
    Stream size                 : 96.5 KiB (0%)
    Title                       : Ukraine
    Language                    : Ukrainian
    Default                     : No
    Forced                      : No
    
    Text #40
    ID                          : 42
    Format                      : UTF-8
    Codec ID                    : S_TEXT/UTF8
    Codec ID/Info               : UTF-8 Plain Text
    Duration                    : 1 h 50 min
    Bit rate                    : 96 b/s
    Frame rate                  : 0.261 FPS
    Count of elements           : 1731
    Stream size                 : 78.2 KiB (0%)
    Title                       : Vietnam
    Language                    : Vietnamese
    Default                     : No
    Forced                      : No
    
    Text #41
    ID                          : 43
    Format                      : UTF-8
    Codec ID                    : S_TEXT/UTF8
    Codec ID/Info               : UTF-8 Plain Text
    Duration                    : 1 h 50 min
    Bit rate                    : 75 b/s
    Frame rate                  : 0.264 FPS
    Count of elements           : 1751
    Stream size                 : 61.3 KiB (0%)
    Title                       : Simplified
    Language                    : Chinese
    Default                     : No
    Forced                      : No
    
    Text #42
    ID                          : 44
    Format                      : UTF-8
    Codec ID                    : S_TEXT/UTF8
    Codec ID/Info               : UTF-8 Plain Text
    Duration                    : 1 h 50 min
    Bit rate                    : 67 b/s
    Frame rate                  : 0.264 FPS
    Count of elements           : 1751
    Stream size                 : 55.0 KiB (0%)
    Title                       : Traditional
    Language                    : Chinese
    Default                     : No
    Forced                      : No
    Download - Mirror 1:
    Download - Mirror 2:
    Download - Mirror 3:
     
  2. Loading...


Share This Page