Google Drive Alien.Domicile.2.Lot.24.2018.1080p.BluRay.x264-AD2L24

Discussion in 'BDRip | 720p/1080p' started by DDLbase, Dec 24, 2019.

  1. DDLbase

    DDLbase Administrator Staff Member

    [​IMG]
    [​IMG]
    Code:
    General
    Unique ID                   : 253049123470579032597063707761630168547 (0xBE5F7D09B3C04BEB4D93FC1C289AC5E3)
    Complete name               : Alien.Domicile.2.Lot.24.2018.1080p.BluRay.x264-AD2L24.mkv
    Format                      : Matroska
    Format version              : Version 2
    File size                   : 5.35 GiB
    Duration                    : 1 h 13 min
    Overall bit rate            : 10.5 Mb/s
    Encoded date                : UTC 2019-12-23 05:57:23
    Writing application         : mkvmerge v37.0.0 ('Leave It') 64-bit
    Writing library             : libebml v1.3.9 + libmatroska v1.5.2
    
    Video
    ID                          : 1
    Format                      : AVC
    Format/Info                 : Advanced Video Codec
    Format profile              : [email protected]
    Format settings             : CABAC / 4 Ref Frames
    Format settings, CABAC      : Yes
    Format settings, Reference  : 4 frames
    Codec ID                    : V_MPEG4/ISO/AVC
    Duration                    : 1 h 13 min
    Bit rate                    : 8 940 kb/s
    Width                       : 1 920 pixels
    Height                      : 1 080 pixels
    Display aspect ratio        : 16:9
    Frame rate mode             : Constant
    Frame rate                  : 23.976 (24000/1001) FPS
    Color space                 : YUV
    Chroma subsampling          : 4:2:0
    Bit depth                   : 8 bits
    Scan type                   : Progressive
    Bits/(Pixel*Frame)          : 0.180
    Stream size                 : 4.58 GiB (86%)
    Writing library             : x264 core 158 r2988 7817004
    Encoding settings           : cabac=1 / ref=4 / deblock=1:0:0 / analyse=0x3:0x133 / me=umh / subme=9 / psy=1 / psy_rd=1.00:0.00 / mixed_ref=1 / me_range=16 / chroma_me=1 / trellis=2 / 8x8dct=1 / cqm=0 / deadzone=21,11 / fast_pskip=1 / chroma_qp_offset=-2 / threads=12 / lookahead_threads=1 / sliced_threads=0 / nr=0 / decimate=1 / interlaced=0 / bluray_compat=0 / constrained_intra=0 / bframes=3 / b_pyramid=2 / b_adapt=2 / b_bias=0 / direct=3 / weightb=1 / open_gop=0 / weightp=2 / keyint=240 / keyint_min=23 / scenecut=40 / intra_refresh=0 / rc_lookahead=60 / rc=crf / mbtree=1 / crf=20.0 / qcomp=0.60 / qpmin=0 / qpmax=69 / qpstep=4 / vbv_maxrate=62500 / vbv_bufsize=78125 / crf_max=0.0 / nal_hrd=none / filler=0 / ip_ratio=1.40 / aq=1:1.00
    Default                     : Yes
    Forced                      : No
    
    Audio
    ID                          : 2
    Format                      : DTS
    Format/Info                 : Digital Theater Systems
    Codec ID                    : A_DTS
    Duration                    : 1 h 13 min
    Bit rate mode               : Constant
    Bit rate                    : 1 509 kb/s
    Channel(s)                  : 2 channels
    Channel layout              : L R
    Sampling rate               : 48.0 kHz
    Frame rate                  : 93.750 FPS (512 SPF)
    Bit depth                   : 24 bits
    Compression mode            : Lossy
    Stream size                 : 791 MiB (14%)
    Language                    : English
    Default                     : Yes
    Forced                      : No
    
    Text
    ID                          : 3
    Format                      : PGS
    Muxing mode                 : zlib
    Codec ID                    : S_HDMV/PGS
    Codec ID/Info               : Picture based subtitle format used on BDs/HD-DVDs
    Duration                    : 3 min 8 s
    Bit rate                    : 19.3 kb/s
    Count of elements           : 44
    Stream size                 : 444 KiB (0%)
    Language                    : English
    Default                     : Yes
    Forced                      : No
    
    Menu
    00:00:00.000                : en:Chapter 01
    00:07:52.013                : en:Chapter 02
    00:15:37.979                : en:Chapter 03
    00:25:36.994                : en:Chapter 04
    00:36:59.926                : en:Chapter 05
    00:47:36.937                : en:Chapter 06
    00:55:02.925                : en:Chapter 07
    01:02:53.979                : en:Chapter 08
    01:09:59.946                : en:Chapter 09
    Download:
     
  2. Loading...


Share This Page