Google Drive Alien.Nation.1988.1080p.BluRay.x264-AMIABLE

Discussion in 'BDRip | 720p/1080p' started by DDLbase, May 11, 2020.

  1. DDLbase

    DDLbase Administrator Staff Member

    [​IMG]

    Rating: 6.3/10 based on 13,715 user ratings

    Genres: Action, Sci-Fi

    In 1988, Earth makes the first contact with an alien civilization. In 1991, these aliens, known as Newcomers, slowly begin to be integrated into human society after three years of quarantine.

    [​IMG]
    Code:
    General
    Unique ID                   : 0 (0x0)
    Complete name               : Alien.Nation.1988.1080p.BluRay.x264-AMIABLE.mkv
    Format                      : Matroska
    Format version              : Version 4
    File size                   : 8.74 GiB
    Duration                    : 1 h 29 min
    Overall bit rate            : 13.9 Mb/s
    Encoded date                : UTC 2010-02-22 21:41:29
    Writing application         : no_variable_data
    Writing library             : no_variable_data
    
    Video
    ID                          : 1
    Format                      : AVC
    Format/Info                 : Advanced Video Codec
    Format profile              : [email protected]
    Format settings             : CABAC / 5 Ref Frames
    Format settings, CABAC      : Yes
    Format settings, Reference  : 5 frames
    Codec ID                    : V_MPEG4/ISO/AVC
    Duration                    : 1 h 29 min
    Bit rate                    : 12.4 Mb/s
    Width                       : 1 920 pixels
    Height                      : 824 pixels
    Display aspect ratio        : 2.35:1
    Frame rate mode             : Constant
    Frame rate                  : 23.976 (24000/1001) FPS
    Color space                 : YUV
    Chroma subsampling          : 4:2:0
    Bit depth                   : 8 bits
    Scan type                   : Progressive
    Bits/(Pixel*Frame)          : 0.327
    Stream size                 : 7.62 GiB (87%)
    Writing library             : x264 core 148 r2744 b97ae06
    Encoding settings           : cabac=1 / ref=5 / deblock=1:-3:-3 / analyse=0x3:0x113 / me=umh / subme=8 / psy=1 / psy_rd=1.10:0.00 / mixed_ref=1 / me_range=32 / chroma_me=1 / trellis=1 / 8x8dct=1 / cqm=0 / deadzone=21,11 / fast_pskip=1 / chroma_qp_offset=-2 / threads=18 / lookahead_threads=3 / sliced_threads=0 / nr=0 / decimate=1 / interlaced=0 / bluray_compat=0 / constrained_intra=0 / bframes=3 / b_pyramid=2 / b_adapt=2 / b_bias=0 / direct=3 / weightb=1 / open_gop=0 / weightp=2 / keyint=240 / keyint_min=24 / scenecut=40 / intra_refresh=0 / rc_lookahead=50 / rc=2pass / mbtree=1 / bitrate=12410 / ratetol=1.0 / qcomp=0.60 / qpmin=0 / qpmax=69 / qpstep=4 / cplxblur=20.0 / qblur=0.5 / ip_ratio=1.40 / aq=3:0.75
    Default                     : Yes
    Forced                      : No
    Statistics Tags Issue       : no_variable_data 1970-01-01 00:00:00 / no_variable_data 2010-02-22 21:41:29
    FromStats_BitRate           : 12403574
    FromStats_Duration          : 01:29:55.057000000
    FromStats_FrameCount        : 129352
    FromStats_StreamSize        : 8364748790
    
    Audio
    ID                          : 2
    Format                      : DTS
    Format/Info                 : Digital Theater Systems
    Codec ID                    : A_DTS
    Duration                    : 1 h 29 min
    Bit rate mode               : Constant
    Bit rate                    : 1 509 kb/s
    Channel(s)                  : 6 channels
    Channel layout              : C L R Ls Rs LFE
    Sampling rate               : 48.0 kHz
    Frame rate                  : 93.750 FPS (512 SPF)
    Bit depth                   : 24 bits
    Compression mode            : Lossy
    Stream size                 : 971 MiB (11%)
    Language                    : English
    Default                     : Yes
    Forced                      : No
    Statistics Tags Issue       : no_variable_data 1970-01-01 00:00:00 / no_variable_data 2010-02-22 21:41:29
    FromStats_BitRate           : 1508999
    FromStats_Duration          : 01:29:56.022000000
    FromStats_FrameCount        : 505877
    FromStats_StreamSize        : 1017824524
    
    Text #1
    ID                          : 3
    Format                      : UTF-8
    Codec ID                    : S_TEXT/UTF8
    Codec ID/Info               : UTF-8 Plain Text
    Title                       : Forced
    Language                    : English
    Default                     : Yes
    Forced                      : Yes
    Statistics Tags Issue       : no_variable_data 1970-01-01 00:00:00 / no_variable_data 2010-02-22 21:41:29
    FromStats_BitRate           : 3
    FromStats_Duration          : 00:21:46.671000000
    FromStats_FrameCount        : 19
    FromStats_StreamSize        : 648
    
    Text #2
    ID                          : 4
    Format                      : UTF-8
    Codec ID                    : S_TEXT/UTF8
    Codec ID/Info               : UTF-8 Plain Text
    Language                    : English
    Default                     : No
    Forced                      : No
    Statistics Tags Issue       : no_variable_data 1970-01-01 00:00:00 / no_variable_data 2010-02-22 21:41:29
    FromStats_BitRate           : 53
    FromStats_Duration          : 01:29:33.454000000
    FromStats_FrameCount        : 1360
    FromStats_StreamSize        : 35811
    
    Text #3
    ID                          : 5
    Format                      : UTF-8
    Codec ID                    : S_TEXT/UTF8
    Codec ID/Info               : UTF-8 Plain Text
    Title                       : SDH
    Language                    : English
    Default                     : No
    Forced                      : No
    Statistics Tags Issue       : no_variable_data 1970-01-01 00:00:00 / no_variable_data 2010-02-22 21:41:29
    FromStats_BitRate           : 54
    FromStats_Duration          : 01:29:33.454000000
    FromStats_FrameCount        : 1417
    FromStats_StreamSize        : 36707
    
    Menu
    00:00:00.000                : en:00:00:00.000
    00:14:25.323                : en:00:14:25.323
    00:27:09.586                : en:00:27:09.586
    00:39:26.948                : en:00:39:26.948
    00:53:46.515                : en:00:53:46.515
    01:03:05.448                : en:01:03:05.448
    01:14:14.950                : en:01:14:14.950
    01:26:02.616                : en:01:26:02.616
    Download - Mirror 1:
    Download - Mirror 2:
     
  2. Loading...


Share This Page