Google Drive Alone.2020.1080p.WEB-DL.H264.DD5.1-EVO

Discussion in 'Web-DL / Webrip | 1080p' started by DDLbase, Sep 18, 2020.

  1. DDLbase

    DDLbase Administrator Staff Member

    [​IMG]

    Rating: 6.1/10 based on 277 user ratings

    Genre: Thriller

    A recently widowed traveler is kidnapped by a cold blooded killer, only to escape into the wilderness where she is forced to battle against the elements as her pursuer closes in on her.

    [​IMG]
    Code:
    General
    Unique ID                   : 99502709560048890467620899582608686873 (0x4ADB865891573E7BEACE30DCBA403F19)
    Complete name               : Alone.2020.1080p.WEB-DL.H264.DD5.1-EVO.mkv
    Format                      : Matroska
    Format version              : Version 4
    File size                   : 3.23 GiB
    Duration                    : 1 h 37 min
    Overall bit rate            : 4 726 kb/s
    Encoded date                : UTC 2020-09-18 13:05:18
    Writing application         : mkvmerge v49.0.0 ('Sick Of Losing Soulmates') 64-bit
    Writing library             : libebml v1.4.0 + libmatroska v1.6.1
    Cover                       : Yes
    Attachments                 : cover.jpg
    
    Video
    ID                          : 2
    Format                      : AVC
    Format/Info                 : Advanced Video Codec
    Format profile              : [email protected]
    Format settings             : CABAC / 5 Ref Frames
    Format settings, CABAC      : Yes
    Format settings, Reference  : 5 frames
    Codec ID                    : V_MPEG4/ISO/AVC
    Duration                    : 1 h 37 min
    Bit rate                    : 4 340 kb/s
    Width                       : 1 920 pixels
    Height                      : 798 pixels
    Display aspect ratio        : 2.40:1
    Frame rate mode             : Constant
    Frame rate                  : 23.976 (23976/1000) FPS
    Color space                 : YUV
    Chroma subsampling          : 4:2:0
    Bit depth                   : 8 bits
    Scan type                   : Progressive
    Bits/(Pixel*Frame)          : 0.118
    Stream size                 : 2.97 GiB (92%)
    Language                    : English
    Default                     : Yes
    Forced                      : No
    Color range                 : Limited
    Color primaries             : BT.709
    Transfer characteristics    : BT.709
    Matrix coefficients         : BT.709
    
    Audio
    ID                          : 1
    Format                      : AC-3
    Format/Info                 : Audio Coding 3
    Commercial name             : Dolby Digital
    Codec ID                    : A_AC3
    Duration                    : 1 h 37 min
    Bit rate mode               : Constant
    Bit rate                    : 384 kb/s
    Channel(s)                  : 6 channels
    Channel layout              : L R C LFE Ls Rs
    Sampling rate               : 48.0 kHz
    Frame rate                  : 31.250 FPS (1536 SPF)
    Compression mode            : Lossy
    Delay relative to video     : -42 ms
    Stream size                 : 269 MiB (8%)
    Language                    : English
    Service kind                : Complete Main
    Default                     : Yes
    Forced                      : No
    
    Menu
    00:00:00.000                : en:On the Road
    00:05:35.251                : en:Being Followed
    00:11:39.156                : en:Chance Encounter
    00:16:54.596                : en:Stalked
    00:24:04.483                : en:Captured
    00:31:50.282                : en:Captive
    00:40:02.691                : en:Escape
    00:42:59.033                : en:Hunt Begins
    00:48:26.402                : en:Free
    00:53:02.552                : en:Assistance
    00:59:35.945                : en:Turn of Events
    01:03:40.229                : en:All in the Eyes
    01:14:06.313                : en:Hunted Becomes the Hunter
    01:18:32.828                : en:In Hiding
    01:26:11.203                : en:Crash
    01:28:31.175                : en:Final Encounter
    Download - Mirror 1:
    Download - Mirror 2:
     
  2. Loading...


Share This Page