Google Drive Amores.Perros.2000.REMASTERED.1080p.BluRay.x264-USURY

Discussion in 'BDRip | 720p/1080p' started by DDLbase, Apr 13, 2021.

  1. DDLbase

    DDLbase Administrator Staff Member

    [​IMG]

    Rating: 8.1/10 based on 225,956 user ratings

    Genres: Drama, Thriller

    A horrific car accident connects three stories, each involving characters dealing with loss, regret, and life’s harsh realities, all in the name of love.

    [​IMG]
    Code:
    General
    Unique ID                   : 187851644560854989215047249267850255978 (0x8D52E926022DA8D0B1A31D6DAD389E6A)
    Complete name               : Amores.Perros.2000.REMASTERED.1080p.BluRay.x264-USURY.mkv
    Format                      : Matroska
    Format version              : Version 4
    File size                   : 19.7 GiB
    Duration                    : 2 h 34 min
    Overall bit rate mode       : Variable
    Overall bit rate            : 18.3 Mb/s
    Encoded date                : UTC 2021-04-09 22:23:13
    Writing application         : mkvmerge v8.5.1 ('Where you lead I will follow') 64bit
    Writing library             : libebml v1.3.3 + libmatroska v1.4.4
    
    Video
    ID                          : 1
    Format                      : AVC
    Format/Info                 : Advanced Video Codec
    Format profile              : [email protected]
    Format settings             : CABAC / 4 Ref Frames
    Format settings, CABAC      : Yes
    Format settings, Reference  : 4 frames
    Codec ID                    : V_MPEG4/ISO/AVC
    Duration                    : 2 h 34 min
    Bit rate                    : 14.4 Mb/s
    Width                       : 1 920 pixels
    Height                      : 1 038 pixels
    Display aspect ratio        : 1.85:1
    Frame rate mode             : Constant
    Frame rate                  : 23.976 (24000/1001) FPS
    Color space                 : YUV
    Chroma subsampling          : 4:2:0
    Bit depth                   : 8 bits
    Scan type                   : Progressive
    Bits/(Pixel*Frame)          : 0.302
    Stream size                 : 15.6 GiB (79%)
    Writing library             : x264 core 161 r3048 b86ae3c
    Encoding settings           : cabac=1 / ref=4 / deblock=1:-3:-3 / analyse=0x3:0x133 / me=umh / subme=10 / psy=1 / psy_rd=1.00:0.15 / mixed_ref=1 / me_range=24 / chroma_me=1 / trellis=2 / 8x8dct=1 / cqm=0 / deadzone=21,11 / fast_pskip=1 / chroma_qp_offset=-3 / threads=18 / lookahead_threads=3 / sliced_threads=0 / nr=0 / decimate=1 / interlaced=0 / bluray_compat=0 / constrained_intra=0 / bframes=8 / b_pyramid=2 / b_adapt=2 / b_bias=0 / direct=3 / weightb=1 / open_gop=0 / weightp=2 / keyint=250 / keyint_min=23 / scenecut=40 / intra_refresh=0 / rc_lookahead=60 / rc=crf / mbtree=1 / crf=21.7 / qcomp=0.60 / qpmin=0 / qpmax=69 / qpstep=4 / ip_ratio=1.40 / aq=3:0.50
    Language                    : English
    Default                     : Yes
    Forced                      : No
    
    Audio
    ID                          : 2
    Format                      : DTS XLL
    Format/Info                 : Digital Theater Systems
    Commercial name             : DTS-HD Master Audio
    Codec ID                    : A_DTS
    Duration                    : 2 h 34 min
    Bit rate mode               : Variable
    Bit rate                    : 3 840 kb/s
    Channel(s)                  : 6 channels
    Channel layout              : C L R Ls Rs LFE
    Sampling rate               : 48.0 kHz
    Frame rate                  : 93.750 FPS (512 SPF)
    Bit depth                   : 24 bits
    Compression mode            : Lossless
    Stream size                 : 4.14 GiB (21%)
    Language                    : Spanish
    Default                     : Yes
    Forced                      : No
    
    Text #1
    ID                          : 3
    Format                      : UTF-8
    Codec ID                    : S_TEXT/UTF8
    Codec ID/Info               : UTF-8 Plain Text
    Duration                    : 2 h 28 min
    Bit rate                    : 30 b/s
    Count of elements           : 1326
    Stream size                 : 32.7 KiB (0%)
    Title                       : English
    Language                    : English
    Default                     : Yes
    Forced                      : Yes
    
    Text #2
    ID                          : 4
    Format                      : PGS
    Muxing mode                 : zlib
    Codec ID                    : S_HDMV/PGS
    Codec ID/Info               : Picture based subtitle format used on BDs/HD-DVDs
    Duration                    : 2 h 28 min
    Bit rate                    : 7 727 b/s
    Count of elements           : 2653
    Stream size                 : 8.21 MiB (0%)
    Title                       : English
    Language                    : English
    Default                     : No
    Forced                      : No
    
    Menu
    00:00:00.000                : en:00:00:00.000
    00:10:45.186                : en:00:10:45.186
    00:16:48.424                : en:00:16:48.424
    00:26:58.116                : en:00:26:58.116
    00:40:09.991                : en:00:40:09.991
    00:50:11.425                : en:00:50:11.425
    00:57:59.518                : en:00:57:59.518
    01:03:26.136                : en:01:03:26.136
    01:10:43.072                : en:01:10:43.072
    01:22:55.012                : en:01:22:55.012
    01:34:27.620                : en:01:34:27.620
    01:44:51.785                : en:01:44:51.785
    01:50:58.944                : en:01:50:58.944
    02:00:25.593                : en:02:00:25.593
    02:12:33.612                : en:02:12:33.612
    02:17:56.268                : en:02:17:56.268
    02:29:39.929                : en:02:29:39.929General
    Unique ID                   : 187851644560854989215047249267850255978 (0x8D52E926022DA8D0B1A31D6DAD389E6A)
    Complete name               : D:\Shared drives\BK\Media\Movies\Movies-Foreign\Amores Perros (2000)\Amores.Perros.2000.REMASTERED.1080p.BluRay.x264-USURY.mkv
    Format                      : Matroska
    Format version              : Version 4
    File size                   : 19.7 GiB
    Duration                    : 2 h 34 min
    Overall bit rate mode       : Variable
    Overall bit rate            : 18.3 Mb/s
    Encoded date                : UTC 2021-04-09 22:23:13
    Writing application         : mkvmerge v8.5.1 ('Where you lead I will follow') 64bit
    Writing library             : libebml v1.3.3 + libmatroska v1.4.4
    
    Video
    ID                          : 1
    Format                      : AVC
    Format/Info                 : Advanced Video Codec
    Format profile              : [email protected]
    Format settings             : CABAC / 4 Ref Frames
    Format settings, CABAC      : Yes
    Format settings, Reference  : 4 frames
    Codec ID                    : V_MPEG4/ISO/AVC
    Duration                    : 2 h 34 min
    Bit rate                    : 14.4 Mb/s
    Width                       : 1 920 pixels
    Height                      : 1 038 pixels
    Display aspect ratio        : 1.85:1
    Frame rate mode             : Constant
    Frame rate                  : 23.976 (24000/1001) FPS
    Color space                 : YUV
    Chroma subsampling          : 4:2:0
    Bit depth                   : 8 bits
    Scan type                   : Progressive
    Bits/(Pixel*Frame)          : 0.302
    Stream size                 : 15.6 GiB (79%)
    Writing library             : x264 core 161 r3048 b86ae3c
    Encoding settings           : cabac=1 / ref=4 / deblock=1:-3:-3 / analyse=0x3:0x133 / me=umh / subme=10 / psy=1 / psy_rd=1.00:0.15 / mixed_ref=1 / me_range=24 / chroma_me=1 / trellis=2 / 8x8dct=1 / cqm=0 / deadzone=21,11 / fast_pskip=1 / chroma_qp_offset=-3 / threads=18 / lookahead_threads=3 / sliced_threads=0 / nr=0 / decimate=1 / interlaced=0 / bluray_compat=0 / constrained_intra=0 / bframes=8 / b_pyramid=2 / b_adapt=2 / b_bias=0 / direct=3 / weightb=1 / open_gop=0 / weightp=2 / keyint=250 / keyint_min=23 / scenecut=40 / intra_refresh=0 / rc_lookahead=60 / rc=crf / mbtree=1 / crf=21.7 / qcomp=0.60 / qpmin=0 / qpmax=69 / qpstep=4 / ip_ratio=1.40 / aq=3:0.50
    Language                    : English
    Default                     : Yes
    Forced                      : No
    
    Audio
    ID                          : 2
    Format                      : DTS XLL
    Format/Info                 : Digital Theater Systems
    Commercial name             : DTS-HD Master Audio
    Codec ID                    : A_DTS
    Duration                    : 2 h 34 min
    Bit rate mode               : Variable
    Bit rate                    : 3 840 kb/s
    Channel(s)                  : 6 channels
    Channel layout              : C L R Ls Rs LFE
    Sampling rate               : 48.0 kHz
    Frame rate                  : 93.750 FPS (512 SPF)
    Bit depth                   : 24 bits
    Compression mode            : Lossless
    Stream size                 : 4.14 GiB (21%)
    Language                    : Spanish
    Default                     : Yes
    Forced                      : No
    
    Text #1
    ID                          : 3
    Format                      : UTF-8
    Codec ID                    : S_TEXT/UTF8
    Codec ID/Info               : UTF-8 Plain Text
    Duration                    : 2 h 28 min
    Bit rate                    : 30 b/s
    Count of elements           : 1326
    Stream size                 : 32.7 KiB (0%)
    Title                       : English
    Language                    : English
    Default                     : Yes
    Forced                      : Yes
    
    Text #2
    ID                          : 4
    Format                      : PGS
    Muxing mode                 : zlib
    Codec ID                    : S_HDMV/PGS
    Codec ID/Info               : Picture based subtitle format used on BDs/HD-DVDs
    Duration                    : 2 h 28 min
    Bit rate                    : 7 727 b/s
    Count of elements           : 2653
    Stream size                 : 8.21 MiB (0%)
    Title                       : English
    Language                    : English
    Default                     : No
    Forced                      : No
    
    Menu
    00:00:00.000                : en:00:00:00.000
    00:10:45.186                : en:00:10:45.186
    00:16:48.424                : en:00:16:48.424
    00:26:58.116                : en:00:26:58.116
    00:40:09.991                : en:00:40:09.991
    00:50:11.425                : en:00:50:11.425
    00:57:59.518                : en:00:57:59.518
    01:03:26.136                : en:01:03:26.136
    01:10:43.072                : en:01:10:43.072
    01:22:55.012                : en:01:22:55.012
    01:34:27.620                : en:01:34:27.620
    01:44:51.785                : en:01:44:51.785
    01:50:58.944                : en:01:50:58.944
    02:00:25.593                : en:02:00:25.593
    02:12:33.612                : en:02:12:33.612
    02:17:56.268                : en:02:17:56.268
    02:29:39.929                : en:02:29:39.929
    Download - Mirror 1:
    Download - Mirror 2:
     

Share This Page