Google Drive Amsterdam.2022.1080p.WEB-DL.DDP5.1.Atmos.H.264-EVO

Discussion in 'Web-DL / Webrip | 1080p' started by DDLbase, Nov 11, 2022.

  1. DDLbase

    DDLbase Administrator Staff Member

    [​IMG]

    Rating: 6.2/10 based on 16,264 user ratings

    Genres: Comedy, Drama, History

    In the 1930s, three friends witness a murder, are framed for it, and uncover one of the most outrageous plots in American history.

    [​IMG]
    Code:
    General
    Unique ID                   : 9150240816353937456458866236496595757 (0x6E245B40DD75DB1FB25027DB48CCB2D)
    Complete name               : Amsterdam.2022.1080p.WEB-DL.DDP5.1.Atmos.H.264-EVO.mkv
    Format                      : Matroska
    Format version              : Version 4
    File size                   : 6.99 GiB
    Duration                    : 2 h 14 min
    Overall bit rate            : 7 431 kb/s
    Encoded date                : UTC 2022-11-11 05:06:07
    Writing application         : mkvmerge v70.0.0 ('Caught A Lite Sneeze') 64-bit
    Writing library             : libebml v1.4.2 + libmatroska v1.6.4
    
    Video
    ID                          : 1
    Format                      : AVC
    Format/Info                 : Advanced Video Codec
    Format profile              : [email protected]
    Format settings             : CABAC / 5 Ref Frames
    Format settings, CABAC      : Yes
    Format settings, Reference  : 5 frames
    Codec ID                    : V_MPEG4/ISO/AVC
    Duration                    : 2 h 14 min
    Bit rate                    : 6 664 kb/s
    Width                       : 1 920 pixels
    Height                      : 804 pixels
    Display aspect ratio        : 2.40:1
    Frame rate mode             : Constant
    Frame rate                  : 23.976 FPS
    Color space                 : YUV
    Chroma subsampling          : 4:2:0
    Bit depth                   : 8 bits
    Scan type                   : Progressive
    Bits/(Pixel*Frame)          : 0.180
    Stream size                 : 6.27 GiB (90%)
    Language                    : English
    Default                     : Yes
    Forced                      : No
    Color range                 : Limited
    Color primaries             : BT.709
    Transfer characteristics    : BT.709
    Matrix coefficients         : BT.709
    
    Audio
    ID                          : 2
    Format                      : E-AC-3 JOC
    Format/Info                 : Enhanced AC-3 with Joint Object Coding
    Commercial name             : Dolby Digital Plus with Dolby Atmos
    Codec ID                    : A_EAC3
    Duration                    : 2 h 14 min
    Bit rate mode               : Constant
    Bit rate                    : 768 kb/s
    Channel(s)                  : 6 channels
    Channel layout              : L R C LFE Ls Rs
    Sampling rate               : 48.0 kHz
    Frame rate                  : 31.250 FPS (1536 SPF)
    Compression mode            : Lossy
    Stream size                 : 737 MiB (10%)
    Language                    : English
    Service kind                : Complete Main
    Default                     : Yes
    Forced                      : No
    Complexity index            : 16
    Number of dynamic objects   : 15
    Bed channel count           : 1 channel
    Bed channel configuration   : LFE
    
    Text
    ID                          : 3
    Format                      : UTF-8
    Codec ID                    : S_TEXT/UTF8
    Codec ID/Info               : UTF-8 Plain Text
    Duration                    : 6 min 14 s
    Bit rate                    : 18 b/s
    Frame rate                  : 0.115 FPS
    Count of elements           : 43
    Stream size                 : 880 Bytes (0%)
    Title                       : Forced
    Language                    : English
    Default                     : Yes
    Forced                      : Yes
    Download - Mirror 1:
    Download - Mirror 2:
     
  2. Loading...


Share This Page