Google Drive Angel.Has.Fallen.2019.1080p.AMZN.WEB-DL.DDP5.1.H.264-NTG

Discussion in 'Web-DL / Webrip | 1080p' started by DDLbase, Nov 13, 2019.

  1. DDLbase

    DDLbase Administrator Staff Member

    [​IMG]
    [​IMG]
    Code:
    General
    Unique ID                   : 173424971389483315889791776252846323929 (0x82786F3EB1181BB9225B6B6BD8A2B8D9)
    Complete name               : Angel.Has.Fallen.2019.1080p.AMZN.WEB-DL.DDP5.1.H.264-NTG.mkv
    Format                      : Matroska
    Format version              : Version 4
    File size                   : 8.06 GiB
    Duration                    : 2 h 1 min
    Overall bit rate            : 9 529 kb/s
    Encoded date                : UTC 2019-11-12 08:06:18
    Writing application         : mkvmerge v21.0.0 ('Tardigrades Will Inherit The Earth') 64-bit
    Writing library             : libebml v1.3.5 + libmatroska v1.4.8
    
    Video
    ID                          : 1
    Format                      : AVC
    Format/Info                 : Advanced Video Codec
    Format profile              : [email protected]
    Format settings             : CABAC / 4 Ref Frames
    Format settings, CABAC      : Yes
    Format settings, ReFrames   : 4 frames
    Codec ID                    : V_MPEG4/ISO/AVC
    Duration                    : 2 h 1 min
    Bit rate mode               : Constant
    Bit rate                    : 8 886 kb/s
    Nominal bit rate            : 10 000 kb/s
    Width                       : 1 920 pixels
    Height                      : 800 pixels
    Display aspect ratio        : 2.40:1
    Frame rate mode             : Constant
    Frame rate                  : 23.976 (24000/1001) FPS
    Color space                 : YUV
    Chroma subsampling          : 4:2:0
    Bit depth                   : 8 bits
    Scan type                   : Progressive
    Bits/(Pixel*Frame)          : 0.241
    Stream size                 : 7.51 GiB (93%)
    Default                     : Yes
    Forced                      : No
    Color range                 : Limited
    Color primaries             : BT.709
    Transfer characteristics    : BT.709
    Matrix coefficients         : BT.709
    
    Audio
    ID                          : 2
    Format                      : E-AC-3
    Format/Info                 : Enhanced AC-3
    Commercial name             : Dolby Digital Plus
    Codec ID                    : A_EAC3
    Duration                    : 2 h 1 min
    Bit rate mode               : Constant
    Bit rate                    : 640 kb/s
    Channel(s)                  : 6 channels
    Channel layout              : L R C LFE Ls Rs
    Sampling rate               : 48.0 kHz
    Frame rate                  : 31.250 FPS (1536 SPF)
    Compression mode            : Lossy
    Stream size                 : 554 MiB (7%)
    Language                    : English
    Service kind                : Complete Main
    Default                     : Yes
    Forced                      : No
    
    Text #1
    ID                          : 3
    Format                      : UTF-8
    Codec ID                    : S_TEXT/UTF8
    Codec ID/Info               : UTF-8 Plain Text
    Duration                    : 1 h 51 min
    Bit rate                    : 58 b/s
    Count of elements           : 1452
    Stream size                 : 47.5 KiB (0%)
    Language                    : English
    Default                     : No
    Forced                      : No
    
    Text #2
    ID                          : 4
    Format                      : UTF-8
    Codec ID                    : S_TEXT/UTF8
    Codec ID/Info               : UTF-8 Plain Text
    Duration                    : 1 h 52 min
    Bit rate                    : 63 b/s
    Count of elements           : 1580
    Stream size                 : 52.6 KiB (0%)
    Title                       : SDH
    Language                    : English
    Default                     : No
    Forced                      : No
    
    Menu
    00:00:00.000                : en:Studio Logo
    00:00:38.000                : en:Scene 2
    00:01:27.000                : en:Title Sequence
    00:01:32.000                : en:Scene 4
    00:06:49.000                : en:Scene 5
    00:08:21.000                : en:Scene 6
    00:09:07.000                : en:Scene 7
    00:11:33.000                : en:Scene 8
    00:16:00.000                : en:Scene 9
    00:23:14.000                : en:Scene 10
    00:28:36.000                : en:Scene 11
    00:32:28.000                : en:Scene 12
    00:39:40.000                : en:Scene 13
    00:41:01.000                : en:Scene 14
    00:42:07.000                : en:Scene 15
    00:50:56.000                : en:Scene 16
    00:53:04.000                : en:Scene 17
    00:57:43.000                : en:Scene 18
    00:59:23.000                : en:Scene 19
    01:03:06.000                : en:Scene 20
    01:06:10.000                : en:Scene 21
    01:10:46.000                : en:Scene 22
    01:16:26.000                : en:Scene 23
    01:19:23.000                : en:Scene 24
    01:24:11.000                : en:Scene 25
    01:30:10.000                : en:Scene 26
    01:39:41.000                : en:Scene 27
    01:44:27.000                : en:Scene 28
    01:50:53.000                : en:End Credits
    Download:
     
  2. Loading...


Share This Page