Google Drive Ant.Man.and.the.Wasp.Quantumania.2023.2160p.WEB-DL.DDP5.1.Atmos.HDR.DV.HEVC-CMRG

Discussion in 'Web-DL / Webrip | 4K' started by DDLbase, Apr 17, 2023.

  1. DDLbase

    DDLbase Administrator Staff Member

    [​IMG]

    Rating: 6.4/10 based on 100,062 user ratings

    Genres: Action, Adventure, Comedy

    Scott Lang and Hope Van Dyne, along with Hank Pym and Janet Van Dyne, explore the Quantum Realm, where they interact with strange creatures and embark on an adventure that goes beyond the limits of what they thought was possible.

    [​IMG]
    Code:
    General
    Unique ID                   : 136368959762311220794315243411523824392 (0x6697B4D0AC9FC76589A740D5CE50EB08)
    Complete name               : Ant.Man.and.the.Wasp.Quantumania.2023.2160p.WEB-DL.DDP5.1.Atmos.HDR.DV.HEVC-CMRG.mkv
    Format                      : Matroska
    Format version              : Version 4
    File size                   : 21.9 GiB
    Duration                    : 2 h 4 min
    Overall bit rate            : 25.2 Mb/s
    Writing application         : mkvmerge v75.0.0 ('Goliath') 64-bit
    Writing library             : libebml v1.4.4 + libmatroska v1.7.1
    
    Video
    ID                          : 1
    Format                      : HEVC
    Format/Info                 : High Efficiency Video Coding
    Format profile              : Main 10@L5@High
    HDR format                  : Dolby Vision, Version 1.0, dvhe.08.06, BL+RPU, HDR10 compatible / SMPTE ST 2094 App 4, Version 1, HDR10+ Profile A compatible
    Codec ID                    : V_MPEGH/ISO/HEVC
    Duration                    : 2 h 4 min
    Bit rate                    : 24.4 Mb/s
    Width                       : 3 840 pixels
    Height                      : 1 608 pixels
    Display aspect ratio        : 2.40:1
    Frame rate mode             : Constant
    Frame rate                  : 23.976 (24000/1001) FPS
    Color space                 : YUV
    Chroma subsampling          : 4:2:0 (Type 2)
    Bit depth                   : 10 bits
    Bits/(Pixel*Frame)          : 0.165
    Stream size                 : 21.2 GiB (97%)
    Language                    : English
    Default                     : Yes
    Forced                      : No
    Color range                 : Limited
    Color primaries             : BT.2020
    Transfer characteristics    : PQ
    Matrix coefficients         : BT.2020 non-constant
    Mastering display color pri : BT.2020
    Mastering display luminance : min: 0.0050 cd/m2, max: 1000 cd/m2
    Maximum Content Light Level : 1887 cd/m2
    Maximum Frame-Average Light : 1006 cd/m2
    
    Audio
    ID                          : 2
    Format                      : E-AC-3 JOC
    Format/Info                 : Enhanced AC-3 with Joint Object Coding
    Commercial name             : Dolby Digital Plus with Dolby Atmos
    Codec ID                    : A_EAC3
    Duration                    : 2 h 4 min
    Bit rate mode               : Constant
    Bit rate                    : 768 kb/s
    Channel(s)                  : 6 channels
    Channel layout              : L R C LFE Ls Rs
    Sampling rate               : 48.0 kHz
    Frame rate                  : 31.250 FPS (1536 SPF)
    Compression mode            : Lossy
    Stream size                 : 684 MiB (3%)
    Language                    : English
    Service kind                : Complete Main
    Default                     : Yes
    Forced                      : No
    Complexity index            : 16
    Number of dynamic objects   : 15
    Bed channel count           : 1 channel
    Bed channel configuration   : LFE
    
    Text #1
    ID                          : 3
    Format                      : UTF-8
    Codec ID                    : S_TEXT/UTF8
    Codec ID/Info               : UTF-8 Plain Text
    Duration                    : 2 h 1 min
    Bit rate                    : 41 b/s
    Frame rate                  : 0.210 FPS
    Count of elements           : 1532
    Stream size                 : 37.4 KiB (0%)
    Language                    : English
    Default                     : No
    Forced                      : No
    
    Text #2
    ID                          : 4
    Format                      : UTF-8
    Codec ID                    : S_TEXT/UTF8
    Codec ID/Info               : UTF-8 Plain Text
    Duration                    : 2 h 3 min
    Bit rate                    : 57 b/s
    Frame rate                  : 0.291 FPS
    Count of elements           : 2157
    Stream size                 : 52.3 KiB (0%)
    Title                       : SDH
    Language                    : English
    Default                     : No
    Forced                      : No
    
    Text #3
    ID                          : 5
    Format                      : UTF-8
    Codec ID                    : S_TEXT/UTF8
    Codec ID/Info               : UTF-8 Plain Text
    Duration                    : 2 h 1 min
    Bit rate                    : 40 b/s
    Frame rate                  : 0.210 FPS
    Count of elements           : 1537
    Stream size                 : 36.0 KiB (0%)
    Title                       : Latin American
    Language                    : Spanish
    Default                     : No
    Forced                      : No
    
    Text #4
    ID                          : 6
    Format                      : UTF-8
    Codec ID                    : S_TEXT/UTF8
    Codec ID/Info               : UTF-8 Plain Text
    Duration                    : 2 h 1 min
    Bit rate                    : 47 b/s
    Frame rate                  : 0.214 FPS
    Count of elements           : 1563
    Stream size                 : 42.0 KiB (0%)
    Title                       : Canadian
    Language                    : French
    Default                     : No
    Forced                      : No
    
    Menu
    00:00:00.000                : en:Chapter 01
    00:02:42.996                : en:Chapter 02
    00:05:35.460                : en:Chapter 03
    00:07:57.435                : en:Chapter 04
    00:10:11.361                : en:Chapter 05
    00:14:30.578                : en:Chapter 06
    00:19:59.449                : en:Chapter 07
    00:23:07.220                : en:Chapter 08
    00:26:39.933                : en:Chapter 09
    00:32:36.498                : en:Chapter 10
    00:35:01.726                : en:Chapter 11
    00:40:32.390                : en:Chapter 12
    00:46:53.688                : en:Chapter 13
    00:49:06.029                : en:Chapter 14
    00:59:22.687                : en:Chapter 15
    01:07:44.064                : en:Chapter 16
    01:14:11.826                : en:Chapter 17
    01:17:21.266                : en:Chapter 18
    01:21:01.444                : en:Chapter 19
    01:24:26.316                : en:Chapter 20
    01:35:34.275                : en:Chapter 21
    01:45:08.350                : en:Chapter 22
    01:47:56.810                : en:Chapter 23
    01:50:08.108                : en:Chapter 24
    01:52:46.099                : en:Chapter 25
    01:55:11.911                : en:Chapter 26
    01:56:32.367                : en:Chapter 27

    Download - Mirror 1:
    Download - Mirror 2:
    Download - Mirror 3:
     
  2. Loading...


Share This Page