Google Drive Armageddon.Time.2022.1080p.WEB-DL.DDP5.1.Atmos.H.264-EVO

Discussion in 'Web-DL / Webrip | 1080p' started by DDLbase, Nov 23, 2022.

  1. DDLbase

    DDLbase Administrator Staff Member

    [​IMG]

    Rating: 7.0/10 based on 2,832 user ratings

    Genre: Drama

    A deeply personal coming-of-age story about the strength of family and the generational pursuit of the American Dream.

    [​IMG]
    Code:
    General
    Unique ID                   : 88444376832001748713206994710929339791 (0x4289C472B5DE0408E18992E11957F58F)
    Complete name               : Armageddon.Time.2022.1080p.WEB-DL.DDP5.1.Atmos.H.264-EVO.mkv
    Format                      : Matroska
    Format version              : Version 4
    File size                   : 5.98 GiB
    Duration                    : 1 h 54 min
    Overall bit rate            : 7 465 kb/s
    Encoded date                : UTC 2022-11-22 05:12:06
    Writing application         : mkvmerge v63.0.0 ('Everything') 64-bit
    Writing library             : libebml v1.4.2 + libmatroska v1.6.4
    
    Video
    ID                          : 1
    Format                      : AVC
    Format/Info                 : Advanced Video Codec
    Format profile              : [email protected]
    Format settings             : CABAC / 5 Ref Frames
    Format settings, CABAC      : Yes
    Format settings, Reference  : 5 frames
    Codec ID                    : V_MPEG4/ISO/AVC
    Duration                    : 1 h 54 min
    Bit rate                    : 6 701 kb/s
    Width                       : 1 920 pixels
    Height                      : 802 pixels
    Display aspect ratio        : 2.40:1
    Frame rate mode             : Constant
    Frame rate                  : 23.976 (24000/1001) FPS
    Color space                 : YUV
    Chroma subsampling          : 4:2:0
    Bit depth                   : 8 bits
    Scan type                   : Progressive
    Bits/(Pixel*Frame)          : 0.182
    Stream size                 : 5.37 GiB (90%)
    Default                     : Yes
    Forced                      : No
    Color range                 : Limited
    Color primaries             : BT.709
    Transfer characteristics    : BT.709
    Matrix coefficients         : BT.709
    
    Audio
    ID                          : 2
    Format                      : E-AC-3 JOC
    Format/Info                 : Enhanced AC-3 with Joint Object Coding
    Commercial name             : Dolby Digital Plus with Dolby Atmos
    Codec ID                    : A_EAC3
    Duration                    : 1 h 54 min
    Bit rate mode               : Constant
    Bit rate                    : 768 kb/s
    Channel(s)                  : 6 channels
    Channel layout              : L R C LFE Ls Rs
    Sampling rate               : 48.0 kHz
    Frame rate                  : 31.250 FPS (1536 SPF)
    Compression mode            : Lossy
    Stream size                 : 630 MiB (10%)
    Language                    : English
    Service kind                : Complete Main
    Default                     : Yes
    Forced                      : No
    Complexity index            : 16
    Number of dynamic objects   : 15
    Bed channel count           : 1 channel
    Bed channel configuration   : LFE
    Download - Mirror 1:
    Download - Mirror 2:
     
  2. Loading...


Share This Page