Google Drive Atonement.2007.1080p.BluRay.x264.DTS-FGT

Discussion in 'BDRip | 720p/1080p' started by DDLbase, Mar 23, 2021.

  1. DDLbase

    DDLbase Administrator Staff Member

    [​IMG]

    Rating: 7.8/10 based on 247,344 user ratings

    Genres: Drama, Mystery, Romance, War

    Thirteen-year-old fledgling writer Briony Tallis irrevocably changes the course of several lives when she accuses her older sister’s lover of a crime he did not commit.

    [​IMG]
    Code:
    General
    Unique ID                   : 186478366208273446578423021397063740448 (0x8C4A6D4C56CF723F8AAE8E2AA3E7AC20)
    Complete name               : Atonement.2007.1080p.BluRay.x264.DTS-FGT.mkv
    Format                      : Matroska
    Format version              : Version 4
    File size                   : 11.2 GiB
    Duration                    : 2 h 2 min
    Overall bit rate            : 13.1 Mb/s
    Movie name                  : Atonement.2007.1080p.BluRay.x264.DTS-FGT
    Encoded date                : UTC 2015-12-28 12:05:28
    Writing application         : mkvmerge v8.3.0 ('Over the Horizon') 64bit
    Writing library             : libebml v1.3.1 + libmatroska v1.4.2
    Cover                       : Yes
    Attachments                 : cover_land.jpg / small_cover.jpg / small_cover_land.jpg / cover.jpg
    
    Video
    ID                          : 1
    Format                      : AVC
    Format/Info                 : Advanced Video Codec
    Format profile              : [email protected]
    Format settings             : CABAC / 4 Ref Frames
    Format settings, CABAC      : Yes
    Format settings, Reference  : 4 frames
    Codec ID                    : V_MPEG4/ISO/AVC
    Duration                    : 2 h 2 min
    Bit rate                    : 11.6 Mb/s
    Width                       : 1 920 pixels
    Height                      : 1 040 pixels
    Display aspect ratio        : 1.85:1
    Frame rate mode             : Constant
    Frame rate                  : 23.976 (24000/1001) FPS
    Color space                 : YUV
    Chroma subsampling          : 4:2:0
    Bit depth                   : 8 bits
    Scan type                   : Progressive
    Bits/(Pixel*Frame)          : 0.241
    Stream size                 : 9.70 GiB (86%)
    Writing library             : x264 core 120 r2164 da19765
    Encoding settings           : cabac=1 / ref=4 / deblock=1:-3:-3 / analyse=0x3:0x133 / me=umh / subme=8 / psy=1 / psy_rd=0.90:0.05 / mixed_ref=1 / me_range=32 / chroma_me=1 / trellis=2 / 8x8dct=1 / cqm=0 / deadzone=21,11 / fast_pskip=0 / chroma_qp_offset=-3 / threads=12 / sliced_threads=0 / nr=0 / decimate=1 / interlaced=0 / bluray_compat=0 / constrained_intra=0 / bframes=3 / b_pyramid=2 / b_adapt=2 / b_bias=0 / direct=3 / weightb=1 / open_gop=0 / weightp=2 / keyint=240 / keyint_min=23 / scenecut=40 / intra_refresh=0 / rc_lookahead=40 / rc=2pass / mbtree=1 / bitrate=11559 / ratetol=1.0 / qcomp=0.60 / qpmin=10 / qpmax=51 / qpstep=4 / cplxblur=20.0 / qblur=0.5 / ip_ratio=1.40 / aq=1:1.00
    Language                    : English
    Default                     : Yes
    Forced                      : No
    
    Audio
    ID                          : 2
    Format                      : DTS
    Format/Info                 : Digital Theater Systems
    Codec ID                    : A_DTS
    Duration                    : 2 h 2 min
    Bit rate mode               : Constant
    Bit rate                    : 1 509 kb/s
    Channel(s)                  : 6 channels
    Channel layout              : C L R Ls Rs LFE
    Sampling rate               : 48.0 kHz
    Frame rate                  : 93.750 FPS (512 SPF)
    Bit depth                   : 24 bits
    Compression mode            : Lossy
    Stream size                 : 1.30 GiB (12%)
    Language                    : English
    Default                     : Yes
    Forced                      : No
    
    Menu
    00:00:00.000                : en:00:00:00.000
    00:06:28.805                : en:00:06:28.805
    00:13:52.165                : en:00:13:52.165
    00:20:25.099                : en:00:20:25.099
    00:26:04.271                : en:00:26:04.271
    00:33:01.646                : en:00:33:01.646
    00:38:42.237                : en:00:38:42.237
    00:43:33.778                : en:00:43:33.778
    00:49:33.512                : en:00:49:33.512
    00:57:49.174                : en:00:57:49.174
    01:04:18.646                : en:01:04:18.646
    01:10:23.678                : en:01:10:23.678
    01:17:26.976                : en:01:17:26.976
    01:20:09.054                : en:01:20:09.054
    01:25:09.479                : en:01:25:09.479
    01:28:46.863                : en:01:28:46.863
    01:34:26.536                : en:01:34:26.536
    01:37:37.685                : en:01:37:37.685
    01:46:15.119                : en:01:46:15.119
    01:54:30.280                : en:01:54:30.280
    Download - Mirror 1:
    Download - Mirror 2:
     
  2. Loading...


Share This Page