Google Drive Austenland.2013.1080p.BluRay.DTS.x264-CtrlHD

Discussion in 'BDRip | 720p/1080p' started by DDLbase, Nov 16, 2020.

  1. DDLbase

    DDLbase Administrator Staff Member

    [​IMG]

    Rating: 6.3/10 based on 19,110 user ratings

    Genres: Comedy, Romance

    Obsessed with Pride and Prejudice (1995), a woman travels to a Jane Austen theme park in search for her perfect gentleman.

    [​IMG]
    Code:
    General
    Unique ID                   : 219245426814374035288964458582832565966 (0xA4F1221DCC33E9DCBF2AFE05C4AFCECE)
    Complete name               : Austenland.2013.1080p.BluRay.DTS.x264-CtrlHD.mkv
    Format                      : Matroska
    Format version              : Version 4
    File size                   : 11.5 GiB
    Duration                    : 1 h 36 min
    Overall bit rate            : 17.0 Mb/s
    Encoded date                : UTC 2014-01-14 12:20:04
    Writing application         : mkvmerge v6.6.0 ('The Edge Of The In Between') built on Dec  1 2013 17:55:00
    Writing library             : libebml v1.3.0 + libmatroska v1.4.1
    
    Video
    ID                          : 1
    Format                      : AVC
    Format/Info                 : Advanced Video Codec
    Format profile              : [email protected]
    Format settings             : CABAC / 5 Ref Frames
    Format settings, CABAC      : Yes
    Format settings, Reference  : 5 frames
    Codec ID                    : V_MPEG4/ISO/AVC
    Duration                    : 1 h 36 min
    Bit rate                    : 15.5 Mb/s
    Width                       : 1 920 pixels
    Height                      : 800 pixels
    Display aspect ratio        : 2.40:1
    Frame rate mode             : Constant
    Frame rate                  : 23.976 (24000/1001) FPS
    Color space                 : YUV
    Chroma subsampling          : 4:2:0
    Bit depth                   : 8 bits
    Scan type                   : Progressive
    Bits/(Pixel*Frame)          : 0.421
    Stream size                 : 10.3 GiB (89%)
    Writing library             : x264 core 133 r2334 a3ac64b
    Encoding settings           : cabac=1 / ref=5 / deblock=1:-3:-3 / analyse=0x3:0x113 / me=tesa / subme=11 / psy=1 / psy_rd=1.10:0.01 / mixed_ref=1 / me_range=32 / chroma_me=1 / trellis=2 / 8x8dct=1 / cqm=0 / deadzone=21,11 / fast_pskip=0 / chroma_qp_offset=-5 / threads=12 / lookahead_threads=2 / sliced_threads=0 / nr=0 / decimate=0 / interlaced=0 / bluray_compat=0 / constrained_intra=0 / bframes=8 / b_pyramid=2 / b_adapt=2 / b_bias=0 / direct=3 / weightb=1 / open_gop=0 / weightp=2 / keyint=250 / keyint_min=23 / scenecut=40 / intra_refresh=0 / rc=2pass / mbtree=0 / bitrate=15500 / ratetol=1.0 / qcomp=0.65 / qpmin=0 / qpmax=69 / qpstep=4 / cplxblur=20.0 / qblur=0.5 / ip_ratio=1.20 / pb_ratio=1.30 / aq=1:0.85
    Language                    : English
    Default                     : Yes
    Forced                      : No
    
    Audio
    ID                          : 2
    Format                      : DTS
    Format/Info                 : Digital Theater Systems
    Codec ID                    : A_DTS
    Duration                    : 1 h 36 min
    Bit rate mode               : Constant
    Bit rate                    : 1 509 kb/s
    Channel(s)                  : 6 channels
    Channel layout              : C L R Ls Rs LFE
    Sampling rate               : 48.0 kHz
    Frame rate                  : 93.750 FPS (512 SPF)
    Bit depth                   : 24 bits
    Compression mode            : Lossy
    Stream size                 : 1.02 GiB (9%)
    Default                     : Yes
    Forced                      : No
    
    Text #1
    ID                          : 3
    Format                      : UTF-8
    Codec ID                    : S_TEXT/UTF8
    Codec ID/Info               : UTF-8 Plain Text
    Title                       : ENG
    Language                    : English
    Default                     : Yes
    Forced                      : No
    
    Text #2
    ID                          : 4
    Format                      : UTF-8
    Codec ID                    : S_TEXT/UTF8
    Codec ID/Info               : UTF-8 Plain Text
    Title                       : ENG(SDH)
    Language                    : English
    Default                     : No
    Forced                      : No
    
    Menu
    00:00:00.000                : en:00:00:00.000
    00:05:45.720                : en:00:05:45.720
    00:12:58.778                : en:00:12:58.778
    00:20:05.162                : en:00:20:05.162
    00:28:53.189                : en:00:28:53.189
    00:35:40.221                : en:00:35:40.221
    00:39:54.058                : en:00:39:54.058
    00:43:46.915                : en:00:43:46.915
    00:45:03.117                : en:00:45:03.117
    00:49:59.246                : en:00:49:59.246
    00:56:44.484                : en:00:56:44.484
    01:04:45.298                : en:01:04:45.298
    01:11:34.540                : en:01:11:34.540
    01:18:50.058                : en:01:18:50.058
    01:23:15.490                : en:01:23:15.490
    01:27:13.561                : en:01:27:13.561
    Download - Mirror 1:
    Download - Mirror 2:
     
  2. Loading...


Share This Page