Google Drive Ava.2020.1080p.BluRay.REMUX.AVC.DTS-HD.MA.5.1-iFT

Discussion in 'BD REMUX | 1080p' started by DDLbase, Sep 11, 2020.

  1. DDLbase

    DDLbase Administrator Staff Member

    [​IMG]

    Rating: 5.3/10 based on 8,482 user ratings

    Genres: Action, Crime, Drama, Mystery, Thriller

    Ava is a deadly assassin who works for a black ops organization, traveling the globe specializing in high profile hits. When a job goes dangerously wrong she is forced to fight for her own survival.

    [​IMG]
    Code:
    General
    Unique ID                   : 29963100784165007466388314361260232504 (0x168AAEECECD9B6F9705E1FE8BB814F38)
    Complete name               : Ava.2020.1080p.BluRay.REMUX.AVC.DTS-HD.MA.5.1-iFT.mkv
    Format                      : Matroska
    Format version              : Version 4
    File size                   : 18.3 GiB
    Duration                    : 1 h 36 min
    Overall bit rate mode       : Variable
    Overall bit rate            : 27.0 Mb/s
    Encoded date                : UTC 2020-09-10 13:10:19
    Writing application         : mkvmerge v50.0.0 ('Awakenings') 64-bit
    Writing library             : libebml v1.4.0 + libmatroska v1.6.2
    
    Video
    ID                          : 1
    Format                      : AVC
    Format/Info                 : Advanced Video Codec
    Format profile              : [email protected]
    Format settings             : CABAC / 4 Ref Frames
    Format settings, CABAC      : Yes
    Format settings, Reference  : 4 frames
    Format settings, GOP        : M=3, N=23
    Codec ID                    : V_MPEG4/ISO/AVC
    Duration                    : 1 h 36 min
    Bit rate mode               : Variable
    Bit rate                    : 23.3 Mb/s
    Maximum bit rate            : 28.0 Mb/s
    Width                       : 1 920 pixels
    Height                      : 1 080 pixels
    Display aspect ratio        : 16:9
    Frame rate mode             : Constant
    Frame rate                  : 23.976 (24000/1001) FPS
    Color space                 : YUV
    Chroma subsampling          : 4:2:0
    Bit depth                   : 8 bits
    Scan type                   : Progressive
    Bits/(Pixel*Frame)          : 0.468
    Stream size                 : 15.7 GiB (86%)
    Default                     : Yes
    Forced                      : No
    Color range                 : Limited
    Color primaries             : BT.709
    Transfer characteristics    : BT.709
    Matrix coefficients         : BT.709
    
    Audio
    ID                          : 2
    Format                      : DTS XLL
    Format/Info                 : Digital Theater Systems
    Commercial name             : DTS-HD Master Audio
    Codec ID                    : A_DTS
    Duration                    : 1 h 36 min
    Bit rate mode               : Variable
    Bit rate                    : 3 753 kb/s
    Channel(s)                  : 6 channels
    Channel layout              : C L R Ls Rs LFE
    Sampling rate               : 48.0 kHz
    Frame rate                  : 93.750 FPS (512 SPF)
    Bit depth                   : 24 bits
    Compression mode            : Lossless
    Stream size                 : 2.54 GiB (14%)
    Title                       : DTS-HD.MA5.1
    Language                    : English
    Default                     : Yes
    Forced                      : No
    
    Text
    ID                          : 3
    Format                      : PGS
    Muxing mode                 : zlib
    Codec ID                    : S_HDMV/PGS
    Codec ID/Info               : Picture based subtitle format used on BDs/HD-DVDs
    Duration                    : 1 h 31 min
    Bit rate                    : 24.5 kb/s
    Count of elements           : 1810
    Stream size                 : 16.0 MiB (0%)
    Language                    : English
    Default                     : Yes
    Forced                      : No
    
    Menu
    00:00:00.000                : en:Chapter 01
    00:11:07.542                : en:Chapter 02
    00:21:53.145                : en:Chapter 03
    00:32:22.899                : en:Chapter 04
    00:44:26.497                : en:Chapter 05
    00:58:33.427                : en:Chapter 06
    01:10:38.192                : en:Chapter 07
    01:18:23.949                : en:Chapter 08
    01:32:28.752                : en:Chapter 09
    Download - Mirror 1:
    Download - Mirror 2:
     
  2. Loading...


Share This Page