Google Drive Bad Boys 2 2003 1080p Bluray Remux AVC DTS-HD 5.1-decatora27

Discussion in 'BD REMUX | 1080p' started by DDLbase, Apr 20, 2020.

  1. DDLbase

    DDLbase Administrator Staff Member

    [​IMG]

    Bad Boys II (2003)

    [​IMG] 6.6/10 [​IMG] 211,349

    Plot

    Bad Boys II is a 2003 American action comedy film directed by Michael Bay, produced by Jerry Bruckheimer, and starring Martin Lawrence and Will Smith. The sequel to the 1995 film Bad Boys and the second installment in the Bad Boys trilogy, the film follows detectives Burnett and Lowrey investigating the flow of illegal drugs going into Miami. The film grossed $273 million worldwide.

    Movie Info
    • Rating: R
    • Genre: Action, Comedy, Crime, Thriller
    • Directed By: Michael Bay
    • Written By: George Gallo (characters), Marianne Wibberley (story), Cormac Wibberley (story), Ron Shelton (story), Ron Shelton (screenplay), Jerry Stahl (screenplay)
    • Starring: Martin Lawrence, Will Smith, Jordi MollĂ , Gabrielle Union
    • Release Date: 18 Jul 2003
    • Runtime: 147 min
    • On Disk/Streaming: 09 Dec 2003
    • Box Office (USA): $138,396,624
    • Awards: 4 wins & 13 nominations.
    • Studio: Sony Pictures Entertainment
    [​IMG]

    Code:
    General
    Unique ID                   : 247605014448527534679733084779933243753 (0xBA46FDBD5CAE4628F0C96B9E75269969)
    Complete name               : Bad Boys 2 2003 1080p Bluray Remux AVC DTS-HD 5.1-decatora27.mkv
    Format                      : Matroska
    Format version              : Version 4
    File size                   : 27.0 GiB
    Duration                    : 2 h 26 min
    Overall bit rate mode       : Variable
    Overall bit rate            : 26.3 Mb/s
    Movie name                  : Bad Boys 2 2003 1080p Bluray Remux AVC DTS-HD 5.1-decatora27
    Encoded date                : UTC 2019-03-28 18:34:12
    Writing application         : mkvmerge v25.0.0 ('Prog Noir') 64-bit
    Writing library             : libebml v1.3.6 + libmatroska v1.4.9
    
    Video
    ID                          : 1
    Format                      : AVC
    Format/Info                 : Advanced Video Codec
    Format profile              : [email protected]
    Format settings             : CABAC / 2 Ref Frames
    Format settings, CABAC      : Yes
    Format settings, Reference  : 2 frames
    Codec ID                    : V_MPEG4/ISO/AVC
    Duration                    : 2 h 26 min
    Bit rate mode               : Variable
    Bit rate                    : 23.9 Mb/s
    Width                       : 1 920 pixels
    Height                      : 1 080 pixels
    Display aspect ratio        : 16:9
    Frame rate mode             : Constant
    Frame rate                  : 23.976 (24000/1001) FPS
    Color space                 : YUV
    Chroma subsampling          : 4:2:0
    Bit depth                   : 8 bits
    Scan type                   : Progressive
    Bits/(Pixel*Frame)          : 0.481
    Stream size                 : 24.5 GiB (91%)
    Title                       : Bad Boys 2 2003 1080p Bluray Remux AVC DTS-HD 5.1-decatora27
    Language                    : English
    Default                     : No
    Forced                      : No
    
    Audio
    ID                          : 2
    Format                      : DTS XLL
    Format/Info                 : Digital Theater Systems
    Commercial name             : DTS-HD Master Audio
    Codec ID                    : A_DTS
    Duration                    : 2 h 26 min
    Bit rate mode               : Variable
    Bit rate                    : 2 372 kb/s
    Channel(s)                  : 6 channels
    Channel layout              : C L R Ls Rs LFE
    Sampling rate               : 48.0 kHz
    Frame rate                  : 93.750 FPS (512 SPF)
    Bit depth                   : 16 bits
    Compression mode            : Lossless
    Stream size                 : 2.43 GiB (9%)
    Title                       : English DTS-HD 5.1
    Language                    : English
    Default                     : Yes
    Forced                      : No
    
    Text #1
    ID                          : 3
    Format                      : PGS
    Muxing mode                 : zlib
    Codec ID                    : S_HDMV/PGS
    Codec ID/Info               : Picture based subtitle format used on BDs/HD-DVDs
    Duration                    : 2 h 20 min
    Bit rate                    : 40.2 kb/s
    Count of elements           : 3832
    Stream size                 : 40.3 MiB (0%)
    Title                       : English
    Language                    : English
    Default                     : Yes
    Forced                      : No
    
    Text #2
    ID                          : 4
    Format                      : PGS
    Muxing mode                 : zlib
    Codec ID                    : S_HDMV/PGS
    Codec ID/Info               : Picture based subtitle format used on BDs/HD-DVDs
    Duration                    : 2 h 25 min
    Bit rate                    : 27.0 kb/s
    Count of elements           : 3586
    Stream size                 : 28.1 MiB (0%)
    Title                       : French
    Language                    : French
    Default                     : No
    Forced                      : No
    Download:
     
  2. Loading...


Share This Page