Google Drive Bad.Boys.For.Life.2020.1080p.BluRay.x264.AAC5.1-[YTS.MX]

Discussion in 'YTS / YIFY BRRip | 1080p' started by DDLbase, Apr 9, 2020.

  1. DDLbase

    DDLbase Administrator Staff Member

    [​IMG]

    Rating: 6.9/10 based on 64,615 user ratings

    Genres: Action, Comedy, Crime, Thriller

    Miami detectives Mike Lowrey and Marcus Burnett must face off against a mother-and-son pair of drug lords who wreak vengeful havoc on their city.

    [​IMG]
    Code:
    General
    Complete name               : C:\Bad.Boys.For.Life.2020.1080p.BluRay.x264.AAC5.1-[YTS.MX].mp4
    Format                      : MPEG-4
    Format profile              : Base Media
    Codec ID                    : isom (isom/iso2/avc1/mp41)
    File size                   : 2.28 GiB
    Duration                    : 2h 3mn
    Overall bit rate            : 2 639 Kbps
    Writing application         : Lavf58.35.100
    
    Video
    ID                          : 1
    Format                      : AVC
    Format/Info                 : Advanced Video Codec
    Format profile              : [email protected]
    Format settings, CABAC      : Yes
    Format settings, ReFrames   : 4 frames
    Codec ID                    : avc1
    Codec ID/Info               : Advanced Video Coding
    Duration                    : 2h 3mn
    Bit rate                    : 2 250 Kbps
    Width                       : 1 920 pixels
    Height                      : 800 pixels
    Display aspect ratio        : 2.40:1
    Frame rate mode             : Constant
    Frame rate                  : 23.976 (24000/1001) fps
    Color space                 : YUV
    Chroma subsampling          : 4:2:0
    Bit depth                   : 8 bits
    Scan type                   : Progressive
    Bits/(Pixel*Frame)          : 0.061
    Stream size                 : 1.95 GiB (85%)
    Writing library             : x264 core 158
    Encoding settings           : cabac=1 / ref=4 / deblock=1:-1:-1 / analyse=0x3:0x133 / me=umh / subme=9 / psy=1 / psy_rd=1.00:0.15 / mixed_ref=1 / me_range=24 / chroma_me=1 / trellis=2 / 8x8dct=1 / cqm=0 / deadzone=21,11 / fast_pskip=0 / chroma_qp_offset=-3 / threads=18 / lookahead_threads=1 / sliced_threads=0 / nr=0 / decimate=1 / interlaced=0 / bluray_compat=0 / constrained_intra=0 / bframes=3 / b_pyramid=2 / b_adapt=2 / b_bias=0 / direct=3 / weightb=1 / open_gop=0 / weightp=2 / keyint=250 / keyint_min=23 / scenecut=40 / intra_refresh=0 / rc_lookahead=60 / rc=2pass / mbtree=1 / bitrate=2250 / ratetol=1.0 / qcomp=0.60 / qpmin=0 / qpmax=69 / qpstep=4 / cplxblur=20.0 / qblur=0.5 / vbv_maxrate=31250 / vbv_bufsize=31250 / nal_hrd=none / filler=0 / ip_ratio=1.40 / aq=1:1.00
    
    Audio
    ID                          : 2
    Format                      : AAC
    Format/Info                 : Advanced Audio Codec
    Format profile              : LC
    Codec ID                    : 40
    Duration                    : 2h 3mn
    Bit rate mode               : Constant
    Bit rate                    : 384 Kbps
    Channel(s)                  : 2 channels
    Channel(s)_Original         : 6 channels
    Channel positions           : Front: L C R, Side: L R, LFE
    Sampling rate               : 48.0 KHz
    Frame rate                  : 46.875 fps (1024 spf)
    Compression mode            : Lossy
    Stream size                 : 341 MiB (15%)
    Default                     : Yes
    Alternate group             : 1
    Download:
     
  2. Loading...


Share This Page