Google Drive Bad.Boys.For.Life.2020.2160p.HDR.WEB-DL.DDP5.1.HEVC-BLUTONiUM

Discussion in 'Web-DL / Webrip | 4K' started by DDLbase, Apr 1, 2020.

  1. DDLbase

    DDLbase Administrator Staff Member

    [​IMG]

    Rating:
    7.1/10 based on 53,301 user ratings

    Genres: Action, Comedy, Crime, Thriller

    The Bad Boys Mike Lowrey and Marcus Burnett are back together for one last ride in the highly anticipated Bad Boys for Life.

    [​IMG] [​IMG]
    [​IMG] [​IMG]
    [​IMG] [​IMG]

    Code:
    General
    Unique ID                   : 57283469395140852117390094136741611741 (0x2B186518570B3948E9EF97E4A2A648DD)
    Complete name               : C:\Bad.Boys.For.Life.2020.2160p.HDR.WEB-DL.DDP5.1.HEVC-BLUTONiUM.mkv
    Format                      : Matroska
    Format version              : Version 4
    File size                   : 19.5 GiB
    Duration                    : 2 h 3 min
    Overall bit rate            : 22.5 Mb/s
    Encoded date                : UTC 2020-03-31 05:26:22
    Writing application         : mkvmerge v42.0.0 ('Overtime') 64-bit
    Writing library             : libebml v1.3.10 + libmatroska v1.5.2
    
    Video
    ID                          : 1
    Format                      : HEVC
    Format/Info                 : High Efficiency Video Coding
    Format profile              : Main [email protected]@High
    HDR format                  : SMPTE ST 2086, HDR10 compatible
    Codec ID                    : V_MPEGH/ISO/HEVC
    Duration                    : 2 h 3 min
    Bit rate                    : 21.9 Mb/s
    Width                       : 3 840 pixels
    Height                      : 2 160 pixels
    Display aspect ratio        : 16:9
    Frame rate mode             : Constant
    Frame rate                  : 23.976 (24000/1001) FPS
    Color space                 : YUV
    Chroma subsampling          : 4:2:0
    Bit depth                   : 10 bits
    Bits/(Pixel*Frame)          : 0.110
    Stream size                 : 19.0 GiB (97%)
    Default                     : Yes
    Forced                      : No
    Color range                 : Limited
    Color primaries             : BT.2020
    Transfer characteristics    : PQ
    Matrix coefficients         : BT.2020 non-constant
    Mastering display color pri : Display P3
    Mastering display luminance : min: 0.0050 cd/m2, max: 4000 cd/m2
    Maximum Content Light Level : 4004 cd/m2
    Maximum Frame-Average Light : 695 cd/m2
    
    Audio
    ID                          : 2
    Format                      : E-AC-3
    Format/Info                 : Enhanced AC-3
    Commercial name             : Dolby Digital Plus
    Codec ID                    : A_EAC3
    Duration                    : 2 h 3 min
    Bit rate mode               : Constant
    Bit rate                    : 640 kb/s
    Channel(s)                  : 6 channels
    Channel layout              : L R C LFE Ls Rs
    Sampling rate               : 48.0 kHz
    Frame rate                  : 31.250 FPS (1536 SPF)
    Compression mode            : Lossy
    Stream size                 : 567 MiB (3%)
    Language                    : English
    Service kind                : Complete Main
    Default                     : Yes
    Forced                      : No
    
    Text #1
    ID                          : 3
    Format                      : UTF-8
    Codec ID                    : S_TEXT/UTF8
    Codec ID/Info               : UTF-8 Plain Text
    Duration                    : 1 h 45 min
    Bit rate                    : 2 b/s
    Count of elements           : 77
    Stream size                 : 2.22 KiB (0%)
    Title                       : Forced
    Language                    : English
    Default                     : Yes
    Forced                      : No
    
    Text #2
    ID                          : 4
    Format                      : UTF-8
    Codec ID                    : S_TEXT/UTF8
    Codec ID/Info               : UTF-8 Plain Text
    Duration                    : 1 h 57 min
    Bit rate                    : 59 b/s
    Count of elements           : 1547
    Stream size                 : 50.9 KiB (0%)
    Language                    : English
    Default                     : No
    Forced                      : No
    
    Text #3
    ID                          : 5
    Format                      : UTF-8
    Codec ID                    : S_TEXT/UTF8
    Codec ID/Info               : UTF-8 Plain Text
    Duration                    : 2 h 1 min
    Bit rate                    : 80 b/s
    Count of elements           : 2225
    Stream size                 : 71.4 KiB (0%)
    Title                       : SDH
    Language                    : English
    Default                     : No
    Forced                      : No
    Download - Mirror 1:
    Download - Mirror 2:
     
  2. Loading...


Share This Page