Google Drive Bangkok Dangerous 2008 Hybrid 1080p BluRay REMUX AVC DTS-HD MA 7.1 - EPSiLON

Discussion in 'BD REMUX | 1080p' started by DDLbase, Apr 3, 2020.

  1. DDLbase

    DDLbase Administrator Staff Member

    [​IMG]

    Bangkok Dangerous (2008)

    [​IMG] 5.4/10 [​IMG] 53,821

    Plot

    Bangkok Dangerous (Thai: บางกอกแดนเจอรัส เพชฌฆาตเงียบ อันตราย) is a 1999 Thai crime film written and directed by the Pang Brothers. Stylishly edited, the story of a deaf and mute hitman was the debut film for the twin-brother team of filmmakers. A 2008 remake of the same name starring Nicolas Cage was also directed by the Pangs. This film was also unofficially remade as Pattiyal , a 2006 Indian Tamil movie.

    Movie Info
    • Rating: R
    • Genre: Action, Crime, Thriller
    • Directed By: Danny Pang, Oxide Chun Pang
    • Written By: Jason Richman (screenplay), Oxide Chun Pang, Danny Pang
    • Starring: Nicolas Cage, Shahkrit Yamnarm, Charlie Yeung, Panward Hemmanee
    • Release Date: 05 Sep 2008
    • Runtime: 99 min
    • On Disk/Streaming: 06 Jan 2009
    • Box Office (USA): $15,195,406
    • Awards: 1 nomination.
    • Studio: Lionsgate
    [​IMG]

    Code:
    General
    Complete name                            : Bangkok.Dangerous.2008.Hybrid.1080p.BluRay.REMUX.AVC.DTS-HD.MA.7.1-EPSiLON.mkv
    Format                                   : Matroska
    Format version                           : Version 4 / Version 2
    File size                                : 25.2 GiB
    Duration                                 : 1 h 39 min
    Overall bit rate mode                    : Variable
    Overall bit rate                         : 36.3 Mb/s
    Encoded date                             : UTC 2018-10-26 22:22:06
    Writing application                      : mkvmerge v28.1.0 ('Morning Child') 64-bit
    Writing library                          : libebml v1.3.6 + libmatroska v1.4.9
    
    Video
    ID                                       : 1
    Format                                   : AVC
    Format/Info                              : Advanced Video Codec
    Format profile                           : [email protected]
    Format settings                          : CABAC / 4 Ref Frames
    Format settings, CABAC                   : Yes
    Format settings, ReFrames                : 4 frames
    Format settings, GOP                     : M=3, N=12
    Codec ID                                 : V_MPEG4/ISO/AVC
    Duration                                 : 1 h 39 min
    Bit rate mode                            : Variable
    Bit rate                                 : 31.0 Mb/s
    Maximum bit rate                         : 37.0 Mb/s
    Width                                    : 1 920 pixels
    Height                                   : 1 080 pixels
    Display aspect ratio                     : 16:9
    Frame rate mode                          : Constant
    Frame rate                               : 23.976 (24000/1001) FPS
    Color space                              : YUV
    Chroma subsampling                       : 4:2:0
    Bit depth                                : 8 bits
    Scan type                                : Progressive
    Bits/(Pixel*Frame)                       : 0.623
    Stream size                              : 21.5 GiB (85%)
    Title                                    : MPEG-4 AVC Video / 31587 kbps / 1080p / 23.976 fps / 16:9 / High Profile 4.1
    Language                                 : English
    Default                                  : Yes
    Forced                                   : No
    Color range                              : Limited
    Color primaries                          : BT.709
    Transfer characteristics                 : BT.709
    Matrix coefficients                      : BT.709
    
    Audio
    ID                                       : 2
    Format                                   : DTS
    Format/Info                              : Digital Theater Systems
    Format profile                           : MA / Core
    Codec ID                                 : A_DTS
    Duration                                 : 1 h 39 min
    Bit rate mode                            : Variable / Constant
    Bit rate                                 : 5 260 kb/s / 1 509 kb/s
    Channel(s)                               : 8 channels / 6 channels
    Channel positions                        : Front: L C R, Side: L R, Wide: L R, LFE / Front: L C R, Side: L R, LFE
    Sampling rate                            : 48.0 kHz
    Frame rate                               : 93.750 FPS (512 SPF)
    Bit depth                                : 24 bits
    Compression mode                         : Lossless / Lossy
    Stream size                              : 3.64 GiB (14%)
    Title                                    : DTS-HD Master Audio / 7.1 / 48 kHz / 5260 kbps / 24-bit
    Language                                 : English
    Default                                  : Yes
    Forced                                   : No
    
    Text #1
    ID                                       : 3
    Format                                   : PGS
    Codec ID                                 : S_HDMV/PGS
    Codec ID/Info                            : Picture based subtitle format used on BDs/HD-DVDs
    Duration                                 : 1 h 10 min
    Bit rate                                 : 780 b/s
    Count of elements                        : 104
    Stream size                              : 406 KiB (0%)
    Title                                    : Forced
    Language                                 : English
    Default                                  : Yes
    Forced                                   : No
    
    Text #2
    ID                                       : 4
    Format                                   : PGS
    Codec ID                                 : S_HDMV/PGS
    Codec ID/Info                            : Picture based subtitle format used on BDs/HD-DVDs
    Duration                                 : 1 h 27 min
    Bit rate                                 : 5 091 b/s
    Count of elements                        : 728
    Stream size                              : 3.19 MiB (0%)
    Language                                 : English
    Default                                  : No
    Forced                                   : No
    
    Text #3
    ID                                       : 5
    Format                                   : PGS
    Codec ID                                 : S_HDMV/PGS
    Codec ID/Info                            : Picture based subtitle format used on BDs/HD-DVDs
    Duration                                 : 1 h 29 min
    Bit rate                                 : 7 434 b/s
    Count of elements                        : 1016
    Stream size                              : 4.77 MiB (0%)
    Title                                    : SDH
    Language                                 : English
    Default                                  : No
    Forced                                   : No
    
    Text #4
    ID                                       : 6
    Format                                   : PGS
    Codec ID                                 : S_HDMV/PGS
    Codec ID/Info                            : Picture based subtitle format used on BDs/HD-DVDs
    Duration                                 : 1 h 33 min
    Bit rate                                 : 8 291 b/s
    Count of elements                        : 690
    Stream size                              : 5.53 MiB (0%)
    Language                                 : Danish
    Default                                  : No
    Forced                                   : No
    
    Text #5
    ID                                       : 7
    Format                                   : PGS
    Codec ID                                 : S_HDMV/PGS
    Codec ID/Info                            : Picture based subtitle format used on BDs/HD-DVDs
    Duration                                 : 1 h 33 min
    Bit rate                                 : 8 142 b/s
    Count of elements                        : 690
    Stream size                              : 5.43 MiB (0%)
    Language                                 : Finnish
    Default                                  : No
    Forced                                   : No
    
    Text #6
    ID                                       : 8
    Format                                   : PGS
    Codec ID                                 : S_HDMV/PGS
    Codec ID/Info                            : Picture based subtitle format used on BDs/HD-DVDs
    Duration                                 : 1 h 32 min
    Bit rate                                 : 16.8 kb/s
    Count of elements                        : 800
    Stream size                              : 11.1 MiB (0%)
    Title                                    : SDH
    Language                                 : German
    Default                                  : No
    Forced                                   : No
    
    Text #7
    ID                                       : 9
    Format                                   : PGS
    Codec ID                                 : S_HDMV/PGS
    Codec ID/Info                            : Picture based subtitle format used on BDs/HD-DVDs
    Duration                                 : 1 h 33 min
    Bit rate                                 : 7 837 b/s
    Count of elements                        : 690
    Stream size                              : 5.23 MiB (0%)
    Language                                 : Norwegian
    Default                                  : No
    Forced                                   : No
    
    Text #8
    ID                                       : 10
    Format                                   : PGS
    Codec ID                                 : S_HDMV/PGS
    Codec ID/Info                            : Picture based subtitle format used on BDs/HD-DVDs
    Duration                                 : 1 h 27 min
    Bit rate                                 : 9 431 b/s
    Count of elements                        : 739
    Stream size                              : 5.92 MiB (0%)
    Title                                    : Latin American
    Language                                 : Spanish
    Default                                  : No
    Forced                                   : No
    
    Text #9
    ID                                       : 11
    Format                                   : PGS
    Codec ID                                 : S_HDMV/PGS
    Codec ID/Info                            : Picture based subtitle format used on BDs/HD-DVDs
    Duration                                 : 1 h 33 min
    Bit rate                                 : 7 992 b/s
    Count of elements                        : 692
    Stream size                              : 5.34 MiB (0%)
    Language                                 : Swedish
    Default                                  : No
    Forced                                   : No
    
    Menu
    00:00:00.000                             : en:Not for Everyone
    00:08:08.530                             : en:Venturing Out
    00:12:36.839                             : en:Night Work
    00:20:47.329                             : en:Duty Calls
    00:27:52.546                             : en:Show Me
    00:32:45.714                             : en:Teacher
    00:40:19.083                             : en:Out on the Town
    00:44:32.962                             : en:Breaking Arrangements
    00:52:11.128                             : en:Daylight Mission
    00:59:19.973                             : en:Discovering Truth
    01:08:28.396                             : en:Last Job
    01:11:33.456                             : en:Final Target
    01:18:50.309                             : en:Missing Someone
    01:23:25.459                             : en:"Where's Kong?"
    01:27:13.019                             : en:One More
    01:31:25.313                             : en:Finishing the Job
    Download:
     
  2. Loading...

    Similar Threads - Bangkok Dangerous 2008
    1. DDLbase
      Replies:
      0
      Views:
      1,154
    2. DDLbase
      Replies:
      0
      Views:
      1,117

Share This Page