Google Drive Belle.2021.1080p.BluRay.x264-HAiKU

Discussion in 'BDRip | 720p/1080p' started by DDLbase, Apr 1, 2022.

  1. DDLbase

    DDLbase Administrator Staff Member

    [​IMG]

    Rating: 7.3/10 based on 6,138 user ratings

    Genres: Animation, Adventure, Drama

    Suzu is a shy high school student living in a rural village. For years, she has only been a shadow of herself. But when she enters "U", a massive virtual world, she escapes into her online persona as Belle, a globally-beloved singer.

    [​IMG]
    Code:
    General
    Unique ID                   : 241021676943086460028637054042584227997 (0xB553162404F4346BBB222D1ACB65A09D)
    Complete name               : Belle.2021.1080p.BluRay.x264-HAiKU.mkv
    Format                      : Matroska
    Format version              : Version 4
    File size                   : 9.27 GiB
    Duration                    : 2 h 1 min
    Overall bit rate mode       : Variable
    Overall bit rate            : 10.9 Mb/s
    Encoded date                : UTC 2022-03-29 06:49:14
    Writing application         : mkvmerge v8.5.1 ('Where you lead I will follow') 64bit
    Writing library             : libebml v1.3.3 + libmatroska v1.4.4
    
    Video
    ID                          : 1
    Format                      : AVC
    Format/Info                 : Advanced Video Codec
    Format profile              : [email protected]
    Format settings             : CABAC / 5 Ref Frames
    Format settings, CABAC      : Yes
    Format settings, Reference  : 5 frames
    Codec ID                    : V_MPEG4/ISO/AVC
    Duration                    : 2 h 1 min
    Bit rate                    : 8 553 kb/s
    Width                       : 1 920 pixels
    Height                      : 804 pixels
    Display aspect ratio        : 2.40:1
    Frame rate mode             : Constant
    Frame rate                  : 23.976 (24000/1001) FPS
    Color space                 : YUV
    Chroma subsampling          : 4:2:0
    Bit depth                   : 8 bits
    Scan type                   : Progressive
    Bits/(Pixel*Frame)          : 0.231
    Stream size                 : 7.24 GiB (78%)
    Writing library             : x264 core 164 r3094 bfc87b7
    Encoding settings           : cabac=1 / ref=5 / deblock=1:-1:1 / analyse=0x3:0x133 / me=umh / subme=10 / psy=1 / psy_rd=0.50:0.00 / mixed_ref=1 / me_range=32 / chroma_me=1 / trellis=2 / 8x8dct=1 / cqm=0 / deadzone=21,11 / fast_pskip=0 / chroma_qp_offset=-2 / threads=24 / lookahead_threads=4 / sliced_threads=0 / nr=0 / decimate=0 / interlaced=0 / bluray_compat=0 / constrained_intra=0 / bframes=8 / b_pyramid=2 / b_adapt=2 / b_bias=0 / direct=3 / weightb=1 / open_gop=0 / weightp=2 / keyint=250 / keyint_min=23 / scenecut=40 / intra_refresh=0 / rc=crf / mbtree=0 / crf=15.0 / qcomp=0.60 / qpmin=0 / qpmax=69 / qpstep=4 / ip_ratio=1.40 / pb_ratio=1.30 / aq=3:1.00
    Language                    : English
    Default                     : Yes
    Forced                      : No
    Color range                 : Limited
    Matrix coefficients         : BT.709
    
    Audio
    ID                          : 2
    Format                      : DTS XLL
    Format/Info                 : Digital Theater Systems
    Commercial name             : DTS-HD Master Audio
    Codec ID                    : A_DTS
    Duration                    : 2 h 1 min
    Bit rate mode               : Variable
    Bit rate                    : 2 368 kb/s
    Channel(s)                  : 6 channels
    Channel layout              : C L R Ls Rs LFE
    Sampling rate               : 48.0 kHz
    Frame rate                  : 93.750 FPS (512 SPF)
    Bit depth                   : 16 bits
    Compression mode            : Lossless
    Stream size                 : 2.01 GiB (22%)
    Title                       : Japanese
    Language                    : Japanese
    Default                     : Yes
    Forced                      : No
    
    Text #1
    ID                          : 3
    Format                      : UTF-8
    Codec ID                    : S_TEXT/UTF8
    Codec ID/Info               : UTF-8 Plain Text
    Duration                    : 1 h 54 min
    Bit rate                    : 41 b/s
    Count of elements           : 1407
    Stream size                 : 35.0 KiB (0%)
    Title                       : English
    Language                    : English
    Default                     : Yes
    Forced                      : Yes
    
    Text #2
    ID                          : 4
    Format                      : PGS
    Muxing mode                 : zlib
    Codec ID                    : S_HDMV/PGS
    Codec ID/Info               : Picture based subtitle format used on BDs/HD-DVDs
    Duration                    : 2 h 0 min
    Bit rate                    : 11.1 kb/s
    Count of elements           : 2613
    Stream size                 : 9.58 MiB (0%)
    Title                       : English
    Language                    : English
    Default                     : No
    Forced                      : No
    
    Text #3
    ID                          : 5
    Format                      : PGS
    Muxing mode                 : zlib
    Codec ID                    : S_HDMV/PGS
    Codec ID/Info               : Picture based subtitle format used on BDs/HD-DVDs
    Duration                    : 2 h 0 min
    Bit rate                    : 12.5 kb/s
    Count of elements           : 2669
    Stream size                 : 10.8 MiB (0%)
    Title                       : Traditional Chinese
    Language                    : Chinese
    Default                     : No
    Forced                      : No
    
    Menu
    00:00:00.000                : :Chapter 01
    00:04:37.235                : :Chapter 02
    00:13:06.494                : :Chapter 03
    00:18:39.577                : :Chapter 04
    00:23:40.836                : :Chapter 05
    00:27:14.049                : :Chapter 06
    00:34:43.456                : :Chapter 07
    00:42:37.013                : :Chapter 08
    01:03:40.233                : :Chapter 09
    01:10:24.554                : :Chapter 10
    01:16:43.724                : :Chapter 11
    01:25:49.895                : :Chapter 12
    01:33:10.585                : :Chapter 13
    01:42:24.430                : :Chapter 14
    01:46:02.106                : :Chapter 15
    01:52:00.589                : :Chapter 16
    01:54:42.626                : :Chapter 17
    Download - Mirror 1:
    Download - Mirror 2:
     
  2. Loading...


Share This Page