Google Drive Big.Hero.6.2014.1080p.BluRay.x264.YIFY

Discussion in 'YTS / YIFY BRRip | 1080p' started by DDLbase, Apr 16, 2020.

  1. DDLbase

    DDLbase Administrator Staff Member

    [​IMG]

    Rating: 7.8/10 based on 392,651 user ratings

    Genres: Animation, Action, Adventure, Family, Sci-Fi

    The special bond that develops between plus-sized inflatable robot Baymax, and prodigy Hiro Hamada, who team up with a group of friends to form a band of high-tech heroes.

    [​IMG]
    Code:
    General
    Complete name               : Big.Hero.6.2014.1080p.BluRay.x264.YIFY.mp4
    Format                      : MPEG-4
    Format profile              : Base Media
    Codec ID                    : isom (isom/avc1)
    File size                   : 1.65 GiB
    Duration                    : 1 h 41 min
    Overall bit rate mode       : Variable
    Overall bit rate            : 2 312 kb/s
    Encoded date                : UTC 2015-02-05 00:43:07
    Tagged date                 : UTC 2015-02-05 00:43:07
    
    Video
    ID                          : 1
    Format                      : AVC
    Format/Info                 : Advanced Video Codec
    Format profile              : [email protected]
    Format settings             : CABAC / 4 Ref Frames
    Format settings, CABAC      : Yes
    Format settings, Reference  : 4 frames
    Codec ID                    : avc1
    Codec ID/Info               : Advanced Video Coding
    Duration                    : 1 h 41 min
    Bit rate                    : 2 215 kb/s
    Maximum bit rate            : 13.1 Mb/s
    Width                       : 1 920 pixels
    Height                      : 808 pixels
    Display aspect ratio        : 2.40:1
    Frame rate mode             : Constant
    Frame rate                  : 23.976 (24000/1001) FPS
    Original frame rate         : 23.976 (23976/1000) FPS
    Color space                 : YUV
    Chroma subsampling          : 4:2:0
    Bit depth                   : 8 bits
    Scan type                   : Progressive
    Bits/(Pixel*Frame)          : 0.060
    Stream size                 : 1.58 GiB (96%)
    Title                       : video.264#trackID=1:fps=23.976 - Imported with GPAC 0.5.0-rev
    Writing library             : x264 core 142 r2479 dd79a61
    Encoding settings           : cabac=1 / ref=4 / deblock=1:-1:-1 / analyse=0x3:0x133 / me=umh / subme=9 / psy=1 / psy_rd=1.00:0.15 / mixed_ref=1 / me_range=24 / chroma_me=1 / trellis=2 / 8x8dct=1 / cqm=0 / deadzone=21,11 / fast_pskip=0 / chroma_qp_offset=-3 / threads=48 / lookahead_threads=4 / sliced_threads=0 / nr=0 / decimate=1 / interlaced=0 / bluray_compat=0 / constrained_intra=0 / bframes=3 / b_pyramid=2 / b_adapt=2 / b_bias=0 / direct=3 / weightb=1 / open_gop=0 / weightp=2 / keyint=250 / keyint_min=23 / scenecut=40 / intra_refresh=0 / rc_lookahead=60 / rc=2pass / mbtree=1 / bitrate=2215 / ratetol=1.0 / qcomp=0.60 / qpmin=0 / qpmax=69 / qpstep=4 / cplxblur=20.0 / qblur=0.5 / vbv_maxrate=31250 / vbv_bufsize=31250 / nal_hrd=none / filler=0 / ip_ratio=1.40 / aq=1:1.00
    Encoded date                : UTC 2015-02-05 00:43:07
    Tagged date                 : UTC 2015-02-05 00:43:16
    Color range                 : Limited
    Color primaries             : BT.709
    Matrix coefficients         : BT.709
    Codec configuration box     : avcC
    
    Audio
    ID                          : 2
    Format                      : AAC LC
    Format/Info                 : Advanced Audio Codec Low Complexity
    Codec ID                    : mp4a-40-2
    Duration                    : 1 h 41 min
    Bit rate mode               : Variable
    Bit rate                    : 93.6 kb/s
    Maximum bit rate            : 103 kb/s
    Channel(s)                  : 2 channels
    Channel layout              : L R
    Sampling rate               : 48.0 kHz
    Frame rate                  : 46.875 FPS (1024 SPF)
    Compression mode            : Lossy
    Stream size                 : 68.2 MiB (4%)
    Language                    : English
    Encoded date                : UTC 2015-02-05 00:43:15
    Tagged date                 : UTC 2015-02-05 00:43:16

    Download - Mirror 1:
    Download - Mirror 2:
     
  2. Loading...


Share This Page