Google Drive Bill.and.Ted.Face.the.Music.2020.1080p.AMZN.WEB-DL.DDP5.1.H.264-NTG

Discussion in 'Web-DL / Webrip | 1080p' started by DDLbase, Aug 28, 2020.

  1. DDLbase

    DDLbase Administrator Staff Member

    [​IMG]

    Rating: 7.7/10 based on 328 user ratings

    Genres: Adventure, Comedy, Music, Sci-Fi

    Once told they’d save the universe during a time-traveling adventure, 2 would-be rockers from San Dimas, California find themselves as middle-aged dads still trying to crank out a hit song and fulfill their destiny.

    [​IMG]
    Code:
    General
    Unique ID                   : 271238617266246234134219708609477106451 (0xCC0EA8525C59C9EA9904A32A18925B13)
    Complete name               : Bill.and.Ted.Face.the.Music.2020.1080p.AMZN.WEB-DL.DDP5.1.H.264-NTG.mkv
    Format                      : Matroska
    Format version              : Version 4
    File size                   : 5.62 GiB
    Duration                    : 1 h 31 min
    Overall bit rate            : 8 754 kb/s
    Encoded date                : UTC 2020-08-28 06:28:53
    Writing application         : mkvmerge v21.0.0 ('Tardigrades Will Inherit The Earth') 64-bit
    Writing library             : libebml v1.3.5 + libmatroska v1.4.8
    
    Video
    ID                          : 1
    Format                      : AVC
    Format/Info                 : Advanced Video Codec
    Format profile              : [email protected]
    Format settings             : CABAC / 4 Ref Frames
    Format settings, CABAC      : Yes
    Format settings, Reference  : 4 frames
    Codec ID                    : V_MPEG4/ISO/AVC
    Duration                    : 1 h 31 min
    Bit rate mode               : Constant
    Bit rate                    : 8 112 kb/s
    Nominal bit rate            : 10 000 kb/s
    Width                       : 1 920 pixels
    Height                      : 800 pixels
    Display aspect ratio        : 2.40:1
    Frame rate mode             : Constant
    Frame rate                  : 23.976 (24000/1001) FPS
    Color space                 : YUV
    Chroma subsampling          : 4:2:0
    Bit depth                   : 8 bits
    Scan type                   : Progressive
    Bits/(Pixel*Frame)          : 0.220
    Stream size                 : 5.21 GiB (93%)
    Default                     : Yes
    Forced                      : No
    Color range                 : Limited
    Color primaries             : BT.709
    Transfer characteristics    : BT.709
    Matrix coefficients         : BT.709
    
    Audio
    ID                          : 2
    Format                      : E-AC-3
    Format/Info                 : Enhanced AC-3
    Commercial name             : Dolby Digital Plus
    Codec ID                    : A_EAC3
    Duration                    : 1 h 31 min
    Bit rate mode               : Constant
    Bit rate                    : 640 kb/s
    Channel(s)                  : 6 channels
    Channel layout              : L R C LFE Ls Rs
    Sampling rate               : 48.0 kHz
    Frame rate                  : 31.250 FPS (1536 SPF)
    Compression mode            : Lossy
    Stream size                 : 421 MiB (7%)
    Language                    : English
    Service kind                : Complete Main
    Default                     : Yes
    Forced                      : No
    
    Text #1
    ID                          : 3
    Format                      : UTF-8
    Codec ID                    : S_TEXT/UTF8
    Codec ID/Info               : UTF-8 Plain Text
    Duration                    : 1 h 31 min
    Bit rate                    : 63 b/s
    Count of elements           : 1583
    Stream size                 : 42.1 KiB (0%)
    Language                    : English
    Default                     : No
    Forced                      : No
    
    Text #2
    ID                          : 4
    Format                      : UTF-8
    Codec ID                    : S_TEXT/UTF8
    Codec ID/Info               : UTF-8 Plain Text
    Duration                    : 1 h 31 min
    Bit rate                    : 68 b/s
    Count of elements           : 1733
    Stream size                 : 45.4 KiB (0%)
    Title                       : SDH
    Language                    : English
    Default                     : No
    Forced                      : No
    
    Menu
    00:00:00.000                : en:Studio Logo
    00:00:33.000                : en:Prologue
    00:01:56.000                : en:Wedding
    00:06:32.000                : en:Couples' Therapy
    00:09:53.000                : en:Respecting the situation
    00:20:54.000                : en:Plagiarizer
    00:25:49.000                : en:Putting plans in place
    00:30:05.000                : en:Assembling a band
    00:41:57.000                : en:More members
    00:47:09.000                : en:Hell
    00:51:42.000                : en:Face the music
    00:59:05.000                : en:The last member
    01:10:00.000                : en:The prophesy
    01:24:15.000                : en:End Credits
    01:29:38.000                : en:One last thing to do
    Download - Mirror 1:
    Download - Mirror 2:
    Download - Mirror 3:

     
  2. Loading...


Share This Page