Google Drive Bill.and.Ted.Face.the.Music.2020.2160p.WEB-DL.H264.DDP5.1-EVO

Discussion in 'Web-DL / Webrip | 4K' started by DDLbase, Aug 28, 2020.

  1. DDLbase

    DDLbase Administrator Staff Member

    [​IMG]

    Rating: 7.7/10 based on 328 user ratings

    Genres: Adventure, Comedy, Music, Sci-Fi

    Once told they’d save the universe during a time-traveling adventure, 2 would-be rockers from San Dimas, California find themselves as middle-aged dads still trying to crank out a hit song and fulfill their destiny.

    [​IMG]
    Code:
    General
    Unique ID                   : 17298751204371206965799900540347458099 (0xD039E488C623340F46D028BBEC1A233)
    Complete name               : Bill and Ted Face the Music.2020.2160p.WEB-DL.H264.DDP5.1-EVO.mkv
    Format                      : Matroska
    Format version              : Version 4
    File size                   : 10.1 GiB
    Duration                    : 1 h 31 min
    Overall bit rate            : 15.7 Mb/s
    Movie name                  : EVO
    Encoded date                : UTC 2020-08-28 10:27:14
    Writing application         : mkvmerge v30.1.0 ('Forever And More') 64-bit
    Writing library             : libebml v1.3.6 + libmatroska v1.4.9
    
    Video
    ID                          : 1
    Format                      : HEVC
    Format/Info                 : High Efficiency Video Coding
    Format profile              : [email protected]@Main
    Codec ID                    : V_MPEGH/ISO/HEVC
    Duration                    : 1 h 31 min
    Bit rate                    : 15.1 Mb/s
    Width                       : 3 840 pixels
    Height                      : 2 160 pixels
    Display aspect ratio        : 16:9
    Frame rate mode             : Constant
    Frame rate                  : 23.976 (24000/1001) FPS
    Color space                 : YUV
    Chroma subsampling          : 4:2:0
    Bit depth                   : 8 bits
    Bits/(Pixel*Frame)          : 0.076
    Stream size                 : 9.70 GiB (96%)
    Default                     : Yes
    Forced                      : No
    Color range                 : Limited
    Color primaries             : BT.709
    Transfer characteristics    : BT.709
    Matrix coefficients         : BT.709
    
    Audio
    ID                          : 2
    Format                      : E-AC-3
    Format/Info                 : Enhanced AC-3
    Commercial name             : Dolby Digital Plus
    Codec ID                    : A_EAC3
    Duration                    : 1 h 31 min
    Bit rate mode               : Constant
    Bit rate                    : 640 kb/s
    Channel(s)                  : 6 channels
    Channel layout              : L R C LFE Ls Rs
    Sampling rate               : 48.0 kHz
    Frame rate                  : 31.250 FPS (1536 SPF)
    Compression mode            : Lossy
    Stream size                 : 421 MiB (4%)
    Language                    : English
    Service kind                : Complete Main
    Default                     : Yes
    Forced                      : No
    
    Text #1
    ID                          : 3
    Format                      : UTF-8
    Codec ID                    : S_TEXT/UTF8
    Codec ID/Info               : UTF-8 Plain Text
    Duration                    : 1 h 31 min
    Bit rate                    : 63 b/s
    Count of elements           : 1583
    Stream size                 : 42.1 KiB (0%)
    Language                    : English
    Default                     : No
    Forced                      : No
    
    Text #2
    ID                          : 4
    Format                      : UTF-8
    Codec ID                    : S_TEXT/UTF8
    Codec ID/Info               : UTF-8 Plain Text
    Duration                    : 1 h 31 min
    Bit rate                    : 68 b/s
    Count of elements           : 1733
    Stream size                 : 45.4 KiB (0%)
    Title                       : SDH
    Language                    : English
    Default                     : No
    Forced                      : No
    
    Menu
    00:00:00.000                : en:Studio Logo
    00:00:33.000                : en:Prologue
    00:01:56.000                : en:Wedding
    00:06:32.000                : en:Couples' Therapy
    00:09:53.000                : en:Respecting the situation
    00:20:54.000                : en:Plagiarizer
    00:25:49.000                : en:Putting plans in place
    00:30:05.000                : en:Assembling a band
    00:41:57.000                : en:More members
    00:47:09.000                : en:Hell
    00:51:42.000                : en:Face the music
    00:59:05.000                : en:The last member
    01:10:00.000                : en:The prophesy
    01:24:15.000                : en:End Credits
    01:29:38.000                : en:One last thing to do
    Download - Mirror 1:
    Download - Mirror 2:
     
  2. Loading...


Share This Page