Google Drive Birds.of.Prey.2020.BluRay.1080p.TrueHD.Atmos.7.1.AVC.REMUX-FraMeSToR

Discussion in 'BD REMUX | 1080p' started by DDLbase, May 3, 2020.

  1. DDLbase

    DDLbase Administrator Staff Member

    [​IMG]

    Rating: 6.2/10 based on 102,998 user ratings

    Genres: Action, Adventure, Crime

    After splitting with the Joker, Harley Quinn joins superheroes Black Canary, Huntress and Renee Montoya to save a young girl from an evil crime lord.

    [​IMG]
    Code:
    General
    Unique ID                   : 78778541976667259365408405186737530799 (0x3B4431FEF8A606F7FA970254A05EE7AF)
    Complete name               : Birds.of.Prey.2020.BluRay.1080p.TrueHD.Atmos.7.1.AVC.REMUX-FraMeSToR.mkv
    Format                      : Matroska
    Format version              : Version 4
    File size                   : 19.3 GiB
    Duration                    : 1 h 48 min
    Overall bit rate mode       : Variable
    Overall bit rate            : 25.4 Mb/s
    Movie name                  : Birds of Prey: And the Fantabulous Emancipation of One Harley Quinn
    Encoded date                : UTC 2020-05-02 18:17:07
    Writing application         : mkvmerge v46.0.0 ('No Deeper Escape') 64-bit
    Writing library             : libebml v1.3.10 + libmatroska v1.5.2
    IMDB                        : tt7713068
    TMDB                        : movie/495764
    
    Video
    ID                          : 1
    Format                      : AVC
    Format/Info                 : Advanced Video Codec
    Format profile              : [email protected]
    Format settings             : CABAC / 4 Ref Frames
    Format settings, CABAC      : Yes
    Format settings, Reference  : 4 frames
    Codec ID                    : V_MPEG4/ISO/AVC
    Duration                    : 1 h 48 min
    Bit rate mode               : Variable
    Bit rate                    : 20.9 Mb/s
    Maximum bit rate            : 33.0 Mb/s
    Width                       : 1 920 pixels
    Height                      : 1 080 pixels
    Display aspect ratio        : 16:9
    Frame rate mode             : Constant
    Frame rate                  : 23.976 (24000/1001) FPS
    Color space                 : YUV
    Chroma subsampling          : 4:2:0
    Bit depth                   : 8 bits
    Scan type                   : Progressive
    Bits/(Pixel*Frame)          : 0.420
    Stream size                 : 15.9 GiB (82%)
    Default                     : Yes
    Forced                      : No
    
    Audio #1
    ID                          : 2
    Format                      : MLP FBA 16-ch
    Format/Info                 : Meridian Lossless Packing FBA with 16-channel presentation
    Commercial name             : Dolby TrueHD with Dolby Atmos
    Codec ID                    : A_TRUEHD
    Duration                    : 1 h 48 min
    Bit rate mode               : Variable
    Bit rate                    : 3 686 kb/s
    Maximum bit rate            : 6 912 kb/s
    Channel(s)                  : 8 channels
    Channel layout              : L R C LFE Ls Rs Lb Rb
    Sampling rate               : 48.0 kHz
    Frame rate                  : 1 200.000 FPS (40 SPF)
    Compression mode            : Lossless
    Stream size                 : 2.80 GiB (15%)
    Title                       : TrueHD Atmos 7.1
    Language                    : English
    Default                     : Yes
    Forced                      : No
    Number of dynamic objects   : 15
    Bed channel count           : 1 channel
    Bed channel configuration   : LFE
    
    Audio #2
    ID                          : 3
    Format                      : AC-3
    Format/Info                 : Audio Coding 3
    Commercial name             : Dolby Digital
    Codec ID                    : A_AC3
    Duration                    : 1 h 48 min
    Bit rate mode               : Constant
    Bit rate                    : 640 kb/s
    Channel(s)                  : 6 channels
    Channel layout              : L R C LFE Ls Rs
    Sampling rate               : 48.0 kHz
    Frame rate                  : 31.250 FPS (1536 SPF)
    Compression mode            : Lossy
    Stream size                 : 499 MiB (3%)
    Title                       : AC3 5.1-EX
    Language                    : English
    Service kind                : Complete Main
    Default                     : No
    Forced                      : No
    
    Text #1
    ID                          : 4
    Format                      : PGS
    Codec ID                    : S_HDMV/PGS
    Codec ID/Info               : Picture based subtitle format used on BDs/HD-DVDs
    Duration                    : 1 h 48 min
    Bit rate                    : 44.5 kb/s
    Count of elements           : 3876
    Stream size                 : 34.5 MiB (0%)
    Title                       : English (SDH)
    Language                    : English
    Default                     : No
    Forced                      : No
    
    Text #2
    ID                          : 5
    Format                      : PGS
    Codec ID                    : S_HDMV/PGS
    Codec ID/Info               : Picture based subtitle format used on BDs/HD-DVDs
    Duration                    : 1 h 48 min
    Bit rate                    : 27.6 kb/s
    Count of elements           : 2854
    Stream size                 : 21.4 MiB (0%)
    Title                       : French
    Language                    : French
    Default                     : No
    Forced                      : No
    
    Text #3
    ID                          : 6
    Format                      : PGS
    Codec ID                    : S_HDMV/PGS
    Codec ID/Info               : Picture based subtitle format used on BDs/HD-DVDs
    Duration                    : 1 h 48 min
    Bit rate                    : 33.5 kb/s
    Count of elements           : 2922
    Stream size                 : 25.9 MiB (0%)
    Title                       : Portuguese (Brazilian)
    Language                    : Portuguese
    Default                     : No
    Forced                      : No
    
    Text #4
    ID                          : 7
    Format                      : PGS
    Codec ID                    : S_HDMV/PGS
    Codec ID/Info               : Picture based subtitle format used on BDs/HD-DVDs
    Duration                    : 1 h 48 min
    Bit rate                    : 33.4 kb/s
    Count of elements           : 2926
    Stream size                 : 25.9 MiB (0%)
    Title                       : Spanish (Latin American)
    Language                    : Spanish
    Default                     : No
    Forced                      : No
    
    Menu
    00:00:00.000                : en:Chapter 1
    00:08:08.446                : en:Chapter 2
    00:17:53.739                : en:Chapter 3
    00:27:11.839                : en:Chapter 4
    00:35:40.805                : en:Chapter 5
    00:44:48.352                : en:Chapter 6
    00:53:43.387                : en:Chapter 7
    01:01:15.547                : en:Chapter 8
    01:10:55.960                : en:Chapter 9
    01:19:06.492                : en:Chapter 10
    01:24:28.146                : en:Chapter 11
    01:34:27.996                : en:Chapter 12
    01:41:26.998                : en:Chapter 13
    Download - Mirror 1:
    Download - Mirror 2:
     
  2. Loading...


Share This Page