Google Drive Blackhat.2015.1080p.BluRay.x264-GECKOS

Discussion in 'BDRip | 720p/1080p' started by DDLbase, Apr 12, 2021.

  1. DDLbase

    DDLbase Administrator Staff Member

    [​IMG]

    Rating: 5.4/10 based on 53,784 user ratings

    Genres: Action, Crime, Thriller

    A furloughed convict and his American and Chinese partners hunt a high-level cybercrime network from Chicago to Los Angeles to Hong Kong to Jakarta.

    [​IMG]
    Code:
    General
    Unique ID                   : 185138557980675728186152722626201115758 (0x8B4863A70A07944A9FA569FCF489DC6E)
    Complete name               : Blackhat.2015.1080p.BluRay.x264-GECKOS.mkv
    Format                      : Matroska
    Format version              : Version 4
    File size                   : 9.83 GiB
    Duration                    : 2 h 13 min
    Overall bit rate            : 10.5 Mb/s
    Encoded date                : UTC 2015-04-30 22:30:38
    Writing application         : mkvmerge v6.2.0 ('Promised Land') built on Apr 28 2013 12:22:01
    Writing library             : libebml v1.3.0 + libmatroska v1.4.0
    
    Video
    ID                          : 1
    Format                      : AVC
    Format/Info                 : Advanced Video Codec
    Format profile              : [email protected]
    Format settings             : CABAC / 5 Ref Frames
    Format settings, CABAC      : Yes
    Format settings, Reference  : 5 frames
    Codec ID                    : V_MPEG4/ISO/AVC
    Duration                    : 2 h 13 min
    Bit rate                    : 9 032 kb/s
    Width                       : 1 920 pixels
    Height                      : 800 pixels
    Display aspect ratio        : 2.40:1
    Frame rate mode             : Constant
    Frame rate                  : 23.976 FPS
    Color space                 : YUV
    Chroma subsampling          : 4:2:0
    Bit depth                   : 8 bits
    Scan type                   : Progressive
    Bits/(Pixel*Frame)          : 0.245
    Stream size                 : 8.23 GiB (84%)
    Writing library             : x264 core 144 r2525 40bb568
    Encoding settings           : cabac=1 / ref=5 / deblock=1:0:0 / analyse=0x3:0x133 / me=umh / subme=7 / psy=1 / psy_rd=1.00:0.00 / mixed_ref=1 / me_range=16 / chroma_me=1 / trellis=1 / 8x8dct=1 / cqm=0 / deadzone=21,11 / fast_pskip=0 / chroma_qp_offset=-2 / threads=60 / lookahead_threads=6 / sliced_threads=0 / nr=0 / decimate=1 / interlaced=0 / bluray_compat=0 / constrained_intra=0 / bframes=3 / b_pyramid=2 / b_adapt=1 / b_bias=0 / direct=1 / weightb=1 / open_gop=0 / weightp=2 / keyint=250 / keyint_min=23 / scenecut=40 / intra_refresh=0 / rc_lookahead=40 / rc=2pass / mbtree=1 / bitrate=9032 / ratetol=1.0 / qcomp=0.60 / qpmin=0 / qpmax=69 / qpstep=4 / cplxblur=20.0 / qblur=0.5 / ip_ratio=1.40 / aq=1:1.00
    Language                    : English
    Default                     : Yes
    Forced                      : No
    
    Audio
    ID                          : 2
    Format                      : DTS
    Format/Info                 : Digital Theater Systems
    Codec ID                    : A_DTS
    Duration                    : 2 h 13 min
    Bit rate mode               : Constant
    Bit rate                    : 1 509 kb/s
    Channel(s)                  : 6 channels
    Channel layout              : C L R Ls Rs LFE
    Sampling rate               : 48.0 kHz
    Frame rate                  : 93.750 FPS (512 SPF)
    Bit depth                   : 24 bits
    Compression mode            : Lossy
    Stream size                 : 1.41 GiB (14%)
    Language                    : English
    Default                     : Yes
    Forced                      : No
    
    Menu
    00:00:00.000                : en:00:00:00.000
    00:06:14.207                : en:00:06:14.207
    00:13:43.281                : en:00:13:43.281
    00:20:22.680                : en:00:20:22.680
    00:28:04.933                : en:00:28:04.933
    00:33:31.509                : en:00:33:31.509
    00:38:03.364                : en:00:38:03.364
    00:45:32.271                : en:00:45:32.271
    00:55:34.998                : en:00:55:34.998
    01:00:53.608                : en:01:00:53.608
    01:08:17.218                : en:01:08:17.218
    01:13:56.641                : en:01:13:56.641
    01:21:20.626                : en:01:21:20.626
    01:26:56.878                : en:01:26:56.878
    01:34:12.188                : en:01:34:12.188
    01:39:09.485                : en:01:39:09.485
    01:44:23.007                : en:01:44:23.007
    01:47:52.049                : en:01:47:52.049
    01:55:05.857                : en:01:55:05.857
    02:04:52.110                : en:02:04:52.110
    Download - Mirror 1:
    Download - Mirror 2:
     
  2. Loading...


Share This Page