Google Drive Blonde.2022.2160p.NF.WEB-DL.DDP5.1.Atmos.DV.HDR10.H.265-SMURF

Discussion in 'Web-DL / Webrip | 4K' started by DDLbase, Nov 30, 2022.

  1. DDLbase

    DDLbase Administrator Staff Member

    [​IMG]

    Rating: 5.5/10 based on 50,210 user ratings

    Genres: Biography, Drama, Romance

    A fictionalized chronicle of the inner life of Marilyn Monroe.

    [​IMG]
    Code:
    General
    Unique ID                   : 275796258218287287910939618798192623334 (0xCF7C6D5EA263DF30089D1F64BC64FEE6)
    Complete name               : Blonde.2022.2160p.NF.WEB-DL.DDP5.1.Atmos.DV.HDR10.H.265-SMURF.mkv
    Format                      : Matroska
    Format version              : Version 4
    File size                   : 23.5 GiB
    Duration                    : 2 h 47 min
    Overall bit rate            : 20.1 Mb/s
    Writing application         : mkvmerge v72.0.0 ('Minuano (Six-eight)') 64-bit
    Writing library             : libebml v1.4.4 + libmatroska v1.7.1
    
    Video
    ID                          : 1
    Format                      : HEVC
    Format/Info                 : High Efficiency Video Coding
    Format profile              : Main 10@L5@Main
    HDR format                  : Dolby Vision, Version 1.0, dvhe.08.06, BL+RPU, HDR10 compatible / SMPTE ST 2086, HDR10 compatible
    Codec ID                    : V_MPEGH/ISO/HEVC
    Duration                    : 2 h 45 min
    Bit rate                    : 19.5 Mb/s
    Width                       : 3 840 pixels
    Height                      : 2 160 pixels
    Display aspect ratio        : 16:9
    Frame rate mode             : Constant
    Frame rate                  : 24.000 FPS
    Color space                 : YUV
    Chroma subsampling          : 4:2:0 (Type 2)
    Bit depth                   : 10 bits
    Bits/(Pixel*Frame)          : 0.098
    Stream size                 : 22.6 GiB (96%)
    Default                     : Yes
    Forced                      : No
    Color range                 : Limited
    Color primaries             : BT.2020
    Transfer characteristics    : PQ
    Matrix coefficients         : BT.2020 non-constant
    Mastering display color pri : Display P3
    Mastering display luminance : min: 0.0001 cd/m2, max: 1000 cd/m2
    Maximum Content Light Level : 1014 cd/m2
    Maximum Frame-Average Light : 118 cd/m2
    
    Audio
    ID                          : 2
    Format                      : E-AC-3 JOC
    Format/Info                 : Enhanced AC-3 with Joint Object Coding
    Commercial name             : Dolby Digital Plus with Dolby Atmos
    Codec ID                    : A_EAC3
    Duration                    : 2 h 47 min
    Bit rate mode               : Constant
    Bit rate                    : 768 kb/s
    Channel(s)                  : 6 channels
    Channel layout              : L R C LFE Ls Rs
    Sampling rate               : 48.0 kHz
    Frame rate                  : 31.250 FPS (1536 SPF)
    Compression mode            : Lossy
    Stream size                 : 920 MiB (4%)
    Language                    : English
    Service kind                : Complete Main
    Default                     : Yes
    Forced                      : No
    Complexity index            : 16
    Number of dynamic objects   : 15
    Bed channel count           : 1 channel
    Bed channel configuration   : LFE
    
    Text #1
    ID                          : 3
    Format                      : UTF-8
    Codec ID                    : S_TEXT/UTF8
    Codec ID/Info               : UTF-8 Plain Text
    Duration                    : 2 h 35 min
    Bit rate                    : 34 b/s
    Frame rate                  : 0.141 FPS
    Count of elements           : 1319
    Stream size                 : 39.6 KiB (0%)
    Language                    : English
    Default                     : No
    Forced                      : No
    
    Text #2
    ID                          : 4
    Format                      : UTF-8
    Codec ID                    : S_TEXT/UTF8
    Codec ID/Info               : UTF-8 Plain Text
    Duration                    : 2 h 38 min
    Bit rate                    : 44 b/s
    Frame rate                  : 0.178 FPS
    Count of elements           : 1687
    Stream size                 : 51.2 KiB (0%)
    Title                       : SDH
    Language                    : English
    Default                     : No
    Forced                      : No
    
    Text #3
    ID                          : 5
    Format                      : UTF-8
    Codec ID                    : S_TEXT/UTF8
    Codec ID/Info               : UTF-8 Plain Text
    Duration                    : 2 h 45 min
    Bit rate                    : 54 b/s
    Frame rate                  : 0.142 FPS
    Count of elements           : 1410
    Stream size                 : 66.6 KiB (0%)
    Language                    : Arabic
    Default                     : No
    Forced                      : No
    
    Text #4
    ID                          : 6
    Format                      : UTF-8
    Codec ID                    : S_TEXT/UTF8
    Codec ID/Info               : UTF-8 Plain Text
    Duration                    : 2 h 44 min
    Bit rate                    : 33 b/s
    Frame rate                  : 0.138 FPS
    Count of elements           : 1357
    Stream size                 : 40.8 KiB (0%)
    Language                    : Catalan
    Default                     : No
    Forced                      : No
    
    Text #5
    ID                          : 7
    Format                      : UTF-8
    Codec ID                    : S_TEXT/UTF8
    Codec ID/Info               : UTF-8 Plain Text
    Duration                    : 2 h 45 min
    Bit rate                    : 30 b/s
    Frame rate                  : 0.136 FPS
    Count of elements           : 1354
    Stream size                 : 36.9 KiB (0%)
    Language                    : Czech
    Default                     : No
    Forced                      : No
    
    Text #6
    ID                          : 8
    Format                      : UTF-8
    Codec ID                    : S_TEXT/UTF8
    Codec ID/Info               : UTF-8 Plain Text
    Duration                    : 2 h 45 min
    Bit rate                    : 32 b/s
    Frame rate                  : 0.133 FPS
    Count of elements           : 1325
    Stream size                 : 39.7 KiB (0%)
    Language                    : Danish
    Default                     : No
    Forced                      : No
    
    Text #7
    ID                          : 9
    Format                      : UTF-8
    Codec ID                    : S_TEXT/UTF8
    Codec ID/Info               : UTF-8 Plain Text
    Duration                    : 2 h 45 min
    Bit rate                    : 31 b/s
    Frame rate                  : 0.131 FPS
    Count of elements           : 1301
    Stream size                 : 38.7 KiB (0%)
    Language                    : German
    Default                     : No
    Forced                      : No
    
    Text #8
    ID                          : 10
    Format                      : UTF-8
    Codec ID                    : S_TEXT/UTF8
    Codec ID/Info               : UTF-8 Plain Text
    Duration                    : 2 h 45 min
    Bit rate                    : 55 b/s
    Frame rate                  : 0.138 FPS
    Count of elements           : 1368
    Stream size                 : 67.2 KiB (0%)
    Language                    : Greek
    Default                     : No
    Forced                      : No
    
    Text #9
    ID                          : 11
    Format                      : UTF-8
    Codec ID                    : S_TEXT/UTF8
    Codec ID/Info               : UTF-8 Plain Text
    Duration                    : 2 h 35 min
    Bit rate                    : 36 b/s
    Frame rate                  : 0.161 FPS
    Count of elements           : 1506
    Stream size                 : 41.1 KiB (0%)
    Title                       : Latin American
    Language                    : Spanish
    Default                     : No
    Forced                      : No
    
    Text #10
    ID                          : 12
    Format                      : UTF-8
    Codec ID                    : S_TEXT/UTF8
    Codec ID/Info               : UTF-8 Plain Text
    Duration                    : 2 h 45 min
    Bit rate                    : 32 b/s
    Frame rate                  : 0.136 FPS
    Count of elements           : 1350
    Stream size                 : 39.6 KiB (0%)
    Title                       : Latin American
    Language                    : Spanish
    Default                     : No
    Forced                      : No
    
    Text #11
    ID                          : 13
    Format                      : UTF-8
    Codec ID                    : S_TEXT/UTF8
    Codec ID/Info               : UTF-8 Plain Text
    Duration                    : 2 h 38 min
    Bit rate                    : 42 b/s
    Frame rate                  : 0.189 FPS
    Count of elements           : 1791
    Stream size                 : 48.8 KiB (0%)
    Title                       : Latin American (SDH)
    Language                    : Spanish
    Default                     : No
    Forced                      : No
    
    Text #12
    ID                          : 14
    Format                      : UTF-8
    Codec ID                    : S_TEXT/UTF8
    Codec ID/Info               : UTF-8 Plain Text
    Duration                    : 2 h 45 min
    Bit rate                    : 32 b/s
    Frame rate                  : 0.137 FPS
    Count of elements           : 1363
    Stream size                 : 39.4 KiB (0%)
    Language                    : Spanish
    Default                     : No
    Forced                      : No
    
    Text #13
    ID                          : 15
    Format                      : UTF-8
    Codec ID                    : S_TEXT/UTF8
    Codec ID/Info               : UTF-8 Plain Text
    Duration                    : 2 h 45 min
    Bit rate                    : 31 b/s
    Frame rate                  : 0.137 FPS
    Count of elements           : 1360
    Stream size                 : 37.8 KiB (0%)
    Language                    : Basque
    Default                     : No
    Forced                      : No
    
    Text #14
    ID                          : 16
    Format                      : UTF-8
    Codec ID                    : S_TEXT/UTF8
    Codec ID/Info               : UTF-8 Plain Text
    Duration                    : 2 h 45 min
    Bit rate                    : 31 b/s
    Frame rate                  : 0.132 FPS
    Count of elements           : 1309
    Stream size                 : 38.1 KiB (0%)
    Language                    : Finnish
    Default                     : No
    Forced                      : No
    
    Text #15
    ID                          : 17
    Format                      : UTF-8
    Codec ID                    : S_TEXT/UTF8
    Codec ID/Info               : UTF-8 Plain Text
    Duration                    : 2 h 45 min
    Bit rate                    : 35 b/s
    Frame rate                  : 0.135 FPS
    Count of elements           : 1342
    Stream size                 : 42.5 KiB (0%)
    Language                    : fil
    Default                     : No
    Forced                      : No
    
    Text #16
    ID                          : 18
    Format                      : UTF-8
    Codec ID                    : S_TEXT/UTF8
    Codec ID/Info               : UTF-8 Plain Text
    Duration                    : 2 h 45 min
    Bit rate                    : 31 b/s
    Frame rate                  : 0.138 FPS
    Count of elements           : 1368
    Stream size                 : 38.0 KiB (0%)
    Language                    : French
    Default                     : No
    Forced                      : No
    
    Text #17
    ID                          : 19
    Format                      : UTF-8
    Codec ID                    : S_TEXT/UTF8
    Codec ID/Info               : UTF-8 Plain Text
    Duration                    : 2 h 45 min
    Bit rate                    : 31 b/s
    Frame rate                  : 0.137 FPS
    Count of elements           : 1364
    Stream size                 : 38.6 KiB (0%)
    Language                    : Galician
    Default                     : No
    Forced                      : No
    
    Text #18
    ID                          : 20
    Format                      : UTF-8
    Codec ID                    : S_TEXT/UTF8
    Codec ID/Info               : UTF-8 Plain Text
    Duration                    : 2 h 45 min
    Bit rate                    : 50 b/s
    Frame rate                  : 0.137 FPS
    Count of elements           : 1364
    Stream size                 : 61.6 KiB (0%)
    Language                    : Hebrew
    Default                     : No
    Forced                      : No
    
    Text #19
    ID                          : 21
    Format                      : UTF-8
    Codec ID                    : S_TEXT/UTF8
    Codec ID/Info               : UTF-8 Plain Text
    Duration                    : 2 h 45 min
    Bit rate                    : 29 b/s
    Frame rate                  : 0.137 FPS
    Count of elements           : 1357
    Stream size                 : 36.1 KiB (0%)
    Language                    : Croatian
    Default                     : No
    Forced                      : No
    
    Text #20
    ID                          : 22
    Format                      : UTF-8
    Codec ID                    : S_TEXT/UTF8
    Codec ID/Info               : UTF-8 Plain Text
    Duration                    : 2 h 45 min
    Bit rate                    : 33 b/s
    Frame rate                  : 0.135 FPS
    Count of elements           : 1342
    Stream size                 : 40.4 KiB (0%)
    Language                    : Hungarian
    Default                     : No
    Forced                      : No
    
    Text #21
    ID                          : 23
    Format                      : UTF-8
    Codec ID                    : S_TEXT/UTF8
    Codec ID/Info               : UTF-8 Plain Text
    Duration                    : 2 h 45 min
    Bit rate                    : 32 b/s
    Frame rate                  : 0.137 FPS
    Count of elements           : 1357
    Stream size                 : 39.8 KiB (0%)
    Language                    : Indonesian
    Default                     : No
    Forced                      : No
    
    Text #22
    ID                          : 24
    Format                      : UTF-8
    Codec ID                    : S_TEXT/UTF8
    Codec ID/Info               : UTF-8 Plain Text
    Duration                    : 2 h 45 min
    Bit rate                    : 31 b/s
    Frame rate                  : 0.132 FPS
    Count of elements           : 1307
    Stream size                 : 37.8 KiB (0%)
    Language                    : Italian
    Default                     : No
    Forced                      : No
    
    Text #23
    ID                          : 25
    Format                      : UTF-8
    Codec ID                    : S_TEXT/UTF8
    Codec ID/Info               : UTF-8 Plain Text
    Duration                    : 2 h 45 min
    Bit rate                    : 33 b/s
    Frame rate                  : 0.130 FPS
    Count of elements           : 1292
    Stream size                 : 40.7 KiB (0%)
    Language                    : Japanese
    Default                     : No
    Forced                      : No
    
    Text #24
    ID                          : 26
    Format                      : UTF-8
    Codec ID                    : S_TEXT/UTF8
    Codec ID/Info               : UTF-8 Plain Text
    Duration                    : 2 h 45 min
    Bit rate                    : 37 b/s
    Frame rate                  : 0.138 FPS
    Count of elements           : 1368
    Stream size                 : 45.9 KiB (0%)
    Language                    : Korean
    Default                     : No
    Forced                      : No
    
    Text #25
    ID                          : 27
    Format                      : UTF-8
    Codec ID                    : S_TEXT/UTF8
    Codec ID/Info               : UTF-8 Plain Text
    Duration                    : 2 h 45 min
    Bit rate                    : 31 b/s
    Frame rate                  : 0.137 FPS
    Count of elements           : 1358
    Stream size                 : 38.5 KiB (0%)
    Language                    : Malay
    Default                     : No
    Forced                      : No
    
    Text #26
    ID                          : 28
    Format                      : UTF-8
    Codec ID                    : S_TEXT/UTF8
    Codec ID/Info               : UTF-8 Plain Text
    Duration                    : 2 h 45 min
    Bit rate                    : 30 b/s
    Frame rate                  : 0.135 FPS
    Count of elements           : 1336
    Stream size                 : 36.9 KiB (0%)
    Language                    : Norwegian Bokmal
    Default                     : No
    Forced                      : No
    
    Text #27
    ID                          : 29
    Format                      : UTF-8
    Codec ID                    : S_TEXT/UTF8
    Codec ID/Info               : UTF-8 Plain Text
    Duration                    : 2 h 45 min
    Bit rate                    : 29 b/s
    Frame rate                  : 0.129 FPS
    Count of elements           : 1285
    Stream size                 : 36.3 KiB (0%)
    Language                    : Dutch
    Default                     : No
    Forced                      : No
    
    Text #28
    ID                          : 30
    Format                      : UTF-8
    Codec ID                    : S_TEXT/UTF8
    Codec ID/Info               : UTF-8 Plain Text
    Duration                    : 2 h 45 min
    Bit rate                    : 30 b/s
    Frame rate                  : 0.128 FPS
    Count of elements           : 1271
    Stream size                 : 36.5 KiB (0%)
    Language                    : Polish
    Default                     : No
    Forced                      : No
    
    Text #29
    ID                          : 31
    Format                      : UTF-8
    Codec ID                    : S_TEXT/UTF8
    Codec ID/Info               : UTF-8 Plain Text
    Duration                    : 2 h 45 min
    Bit rate                    : 33 b/s
    Frame rate                  : 0.140 FPS
    Count of elements           : 1393
    Stream size                 : 40.2 KiB (0%)
    Title                       : Brazilian
    Language                    : Portuguese
    Default                     : No
    Forced                      : No
    
    Text #30
    ID                          : 32
    Format                      : UTF-8
    Codec ID                    : S_TEXT/UTF8
    Codec ID/Info               : UTF-8 Plain Text
    Duration                    : 2 h 45 min
    Bit rate                    : 32 b/s
    Frame rate                  : 0.136 FPS
    Count of elements           : 1348
    Stream size                 : 39.6 KiB (0%)
    Language                    : Portuguese
    Default                     : No
    Forced                      : No
    
    Text #31
    ID                          : 33
    Format                      : UTF-8
    Codec ID                    : S_TEXT/UTF8
    Codec ID/Info               : UTF-8 Plain Text
    Duration                    : 2 h 45 min
    Bit rate                    : 37 b/s
    Frame rate                  : 0.137 FPS
    Count of elements           : 1356
    Stream size                 : 45.1 KiB (0%)
    Language                    : Romanian
    Default                     : No
    Forced                      : No
    
    Text #32
    ID                          : 34
    Format                      : UTF-8
    Codec ID                    : S_TEXT/UTF8
    Codec ID/Info               : UTF-8 Plain Text
    Duration                    : 2 h 45 min
    Bit rate                    : 53 b/s
    Frame rate                  : 0.143 FPS
    Count of elements           : 1422
    Stream size                 : 65.1 KiB (0%)
    Language                    : Russian
    Default                     : No
    Forced                      : No
    
    Text #33
    ID                          : 35
    Format                      : UTF-8
    Codec ID                    : S_TEXT/UTF8
    Codec ID/Info               : UTF-8 Plain Text
    Duration                    : 2 h 45 min
    Bit rate                    : 31 b/s
    Frame rate                  : 0.132 FPS
    Count of elements           : 1308
    Stream size                 : 38.3 KiB (0%)
    Language                    : Swedish
    Default                     : No
    Forced                      : No
    
    Text #34
    ID                          : 36
    Format                      : UTF-8
    Codec ID                    : S_TEXT/UTF8
    Codec ID/Info               : UTF-8 Plain Text
    Duration                    : 2 h 45 min
    Bit rate                    : 80 b/s
    Frame rate                  : 0.138 FPS
    Count of elements           : 1365
    Stream size                 : 97.1 KiB (0%)
    Language                    : Thai
    Default                     : No
    Forced                      : No
    
    Text #35
    ID                          : 37
    Format                      : UTF-8
    Codec ID                    : S_TEXT/UTF8
    Codec ID/Info               : UTF-8 Plain Text
    Duration                    : 2 h 45 min
    Bit rate                    : 33 b/s
    Frame rate                  : 0.136 FPS
    Count of elements           : 1351
    Stream size                 : 40.7 KiB (0%)
    Language                    : Turkish
    Default                     : No
    Forced                      : No
    
    Text #36
    ID                          : 38
    Format                      : UTF-8
    Codec ID                    : S_TEXT/UTF8
    Codec ID/Info               : UTF-8 Plain Text
    Duration                    : 2 h 45 min
    Bit rate                    : 50 b/s
    Frame rate                  : 0.137 FPS
    Count of elements           : 1360
    Stream size                 : 60.7 KiB (0%)
    Language                    : Ukrainian
    Default                     : No
    Forced                      : No
    
    Text #37
    ID                          : 39
    Format                      : UTF-8
    Codec ID                    : S_TEXT/UTF8
    Codec ID/Info               : UTF-8 Plain Text
    Duration                    : 2 h 45 min
    Bit rate                    : 46 b/s
    Frame rate                  : 0.138 FPS
    Count of elements           : 1367
    Stream size                 : 56.1 KiB (0%)
    Language                    : Vietnamese
    Default                     : No
    Forced                      : No
    
    Text #38
    ID                          : 40
    Format                      : UTF-8
    Codec ID                    : S_TEXT/UTF8
    Codec ID/Info               : UTF-8 Plain Text
    Duration                    : 2 h 45 min
    Bit rate                    : 33 b/s
    Frame rate                  : 0.138 FPS
    Count of elements           : 1368
    Stream size                 : 41.1 KiB (0%)
    Title                       : Simplified
    Language                    : Chinese
    Default                     : No
    Forced                      : No
    
    Text #39
    ID                          : 41
    Format                      : UTF-8
    Codec ID                    : S_TEXT/UTF8
    Codec ID/Info               : UTF-8 Plain Text
    Duration                    : 2 h 45 min
    Bit rate                    : 32 b/s
    Frame rate                  : 0.142 FPS
    Count of elements           : 1413
    Stream size                 : 39.6 KiB (0%)
    Title                       : Traditional
    Language                    : Chinese
    Default                     : No
    Forced                      : No
    
    Menu
    02:43:13.000                : en:End Credits
    Download - Mirror 1:
    Download - Mirror 2:
     
  2. Loading...


Share This Page