Google Drive Blood.Diamond.2006.1080p.BluRay.x264.DTS-FGT

Discussion in 'BDRip | 720p/1080p' started by DDLbase, Jan 23, 2021.

  1. DDLbase

    DDLbase Administrator Staff Member

    [​IMG]

    Rating: 8.0/10 based on 498,626 user ratings

    Genres: Adventure, Drama, Thriller

    A fisherman, a smuggler, and a syndicate of businessmen match wits over the possession of a priceless diamond.

    [​IMG]
    Code:
    General
    Unique ID                   : 178903581012192182669985920065474884319 (0x8697938DD53B572EAC2A125905A372DF)
    Complete name               : Blood.Diamond.2006.1080p.BluRay.x264.DTS-FGT.mkv
    Format                      : Matroska
    Format version              : Version 4
    File size                   : 12.1 GiB
    Duration                    : 2 h 23 min
    Overall bit rate            : 12.1 Mb/s
    Movie name                  : Blood.Diamond.2006.1080p.BluRay.x264.DTS-FGT
    Encoded date                : UTC 2015-05-23 09:29:53
    Writing application         : mkvmerge v7.9.0 ('Birds') 64bit
    Writing library             : libebml v1.3.1 + libmatroska v1.4.2
    Cover                       : Yes
    Attachments                 : cover_land.jpg / small_cover.jpg / small_cover_land.jpg / cover.jpg
    
    Video
    ID                          : 1
    Format                      : AVC
    Format/Info                 : Advanced Video Codec
    Format profile              : [email protected]
    Format settings             : CABAC / 5 Ref Frames
    Format settings, CABAC      : Yes
    Format settings, Reference  : 5 frames
    Codec ID                    : V_MPEG4/ISO/AVC
    Duration                    : 2 h 23 min
    Bit rate                    : 10.6 Mb/s
    Width                       : 1 920 pixels
    Height                      : 800 pixels
    Display aspect ratio        : 2.40:1
    Frame rate mode             : Constant
    Frame rate                  : 23.976 FPS
    Color space                 : YUV
    Chroma subsampling          : 4:2:0
    Bit depth                   : 8 bits
    Scan type                   : Progressive
    Bits/(Pixel*Frame)          : 0.287
    Stream size                 : 10.3 GiB (86%)
    Writing library             : x264 core 66 r1088M 71ac0a3
    Encoding settings           : cabac=1 / ref=5 / deblock=1:-3:-3 / analyse=0x3:0x113 / me=umh / subme=9 / psy_rd=1.0:0.0 / mixed_ref=1 / me_range=32 / chroma_me=1 / trellis=2 / 8x8dct=1 / cqm=0 / deadzone=21,11 / chroma_qp_offset=-4 / threads=3 / nr=0 / decimate=1 / mbaff=0 / bframes=3 / b_pyramid=1 / b_adapt=2 / b_bias=0 / direct=1 / wpredb=1 / keyint=250 / keyint_min=25 / scenecut=40(pre) / rc=2pass / bitrate=10578 / ratetol=1.0 / qcomp=0.60 / qpmin=10 / qpmax=51 / qpstep=4 / cplxblur=20.0 / qblur=0.5 / vbv_maxrate=50000 / vbv_bufsize=40000 / ip_ratio=1.40 / pb_ratio=1.30 / aq=1:0.80 / zones=0,80,q=20/193430,206233,q=20
    Default                     : Yes
    Forced                      : No
    
    Audio
    ID                          : 2
    Format                      : DTS
    Format/Info                 : Digital Theater Systems
    Codec ID                    : A_DTS
    Duration                    : 2 h 23 min
    Bit rate mode               : Constant
    Bit rate                    : 1 510 kb/s
    Channel(s)                  : 6 channels
    Channel layout              : C L R Ls Rs LFE
    Sampling rate               : 48.0 kHz
    Frame rate                  : 93.750 FPS (512 SPF)
    Bit depth                   : 24 bits
    Compression mode            : Lossy
    Stream size                 : 1.51 GiB (13%)
    Language                    : English
    Default                     : Yes
    Forced                      : No
    
    Text #1
    ID                          : 3
    Format                      : ASS
    Codec ID                    : S_TEXT/ASS
    Codec ID/Info               : Advanced Sub Station Alpha
    Compression mode            : Lossless
    Language                    : English
    Default                     : Yes
    Forced                      : No
    
    Text #2
    ID                          : 4
    Format                      : ASS
    Codec ID                    : S_TEXT/ASS
    Codec ID/Info               : Advanced Sub Station Alpha
    Compression mode            : Lossless
    Language                    : Bulgarian
    Default                     : No
    Forced                      : No
    
    Text #3
    ID                          : 5
    Format                      : ASS
    Codec ID                    : S_TEXT/ASS
    Codec ID/Info               : Advanced Sub Station Alpha
    Compression mode            : Lossless
    Language                    : French
    Default                     : No
    Forced                      : No
    
    Text #4
    ID                          : 6
    Format                      : ASS
    Codec ID                    : S_TEXT/ASS
    Codec ID/Info               : Advanced Sub Station Alpha
    Compression mode            : Lossless
    Language                    : Spanish
    Default                     : No
    Forced                      : No
    
    Text #5
    ID                          : 7
    Format                      : ASS
    Codec ID                    : S_TEXT/ASS
    Codec ID/Info               : Advanced Sub Station Alpha
    Compression mode            : Lossless
    Language                    : Portuguese
    Default                     : No
    Forced                      : No
    
    Text #6
    ID                          : 8
    Format                      : ASS
    Codec ID                    : S_TEXT/ASS
    Codec ID/Info               : Advanced Sub Station Alpha
    Compression mode            : Lossless
    Language                    : Swedish
    Default                     : No
    Forced                      : No
    
    Text #7
    ID                          : 9
    Format                      : ASS
    Codec ID                    : S_TEXT/ASS
    Codec ID/Info               : Advanced Sub Station Alpha
    Compression mode            : Lossless
    Language                    : Finnish
    Default                     : No
    Forced                      : No
    
    Text #8
    ID                          : 10
    Format                      : ASS
    Codec ID                    : S_TEXT/ASS
    Codec ID/Info               : Advanced Sub Station Alpha
    Compression mode            : Lossless
    Language                    : Norwegian
    Default                     : No
    Forced                      : No
    
    Text #9
    ID                          : 11
    Format                      : ASS
    Codec ID                    : S_TEXT/ASS
    Codec ID/Info               : Advanced Sub Station Alpha
    Compression mode            : Lossless
    Language                    : Hungarian
    Default                     : No
    Forced                      : No
    
    Text #10
    ID                          : 12
    Format                      : ASS
    Codec ID                    : S_TEXT/ASS
    Codec ID/Info               : Advanced Sub Station Alpha
    Compression mode            : Lossless
    Language                    : Romanian
    Default                     : No
    Forced                      : No
    
    Text #11
    ID                          : 13
    Format                      : ASS
    Codec ID                    : S_TEXT/ASS
    Codec ID/Info               : Advanced Sub Station Alpha
    Compression mode            : Lossless
    Language                    : Greek
    Default                     : No
    Forced                      : No
    
    Text #12
    ID                          : 14
    Format                      : ASS
    Codec ID                    : S_TEXT/ASS
    Codec ID/Info               : Advanced Sub Station Alpha
    Compression mode            : Lossless
    Language                    : Chinese
    Default                     : No
    Forced                      : No
    Download - Mirror 1:
    Download - Mirror 2:
     
  2. Loading...


Share This Page