Google Drive Blood.Father.2016.1080p.BluRay.x264-GECKOS

Discussion in 'BDRip | 720p/1080p' started by DDLbase, Jun 24, 2020.

  1. DDLbase

    DDLbase Administrator Staff Member

    [​IMG]

    Rating: 6.4/10 based on 57,492 user ratings

    Genres: Action, Crime, Drama, Thriller

    An ex-con reunites with his estranged wayward 17-year old daughter to protect her from drug dealers who are trying to kill her.

    [​IMG]
    Code:
    General
    Unique ID                   : 170932079545313152090642351000032380516 (0x8098523005D6FC42829F8BFF53340664)
    Complete name               : Blood.Father.2016.1080p.BluRay.x264-GECKOS.mkv
    Format                      : Matroska
    Format version              : Version 4
    File size                   : 6.56 GiB
    Duration                    : 1 h 28 min
    Overall bit rate            : 10.6 Mb/s
    Encoded date                : UTC 2016-10-06 20:03:29
    Writing application         : mkvmerge v8.3.0 ('Over the Horizon') 64bit
    Writing library             : libebml v1.3.1 + libmatroska v1.4.2
    
    Video
    ID                          : 1
    Format                      : AVC
    Format/Info                 : Advanced Video Codec
    Format profile              : [email protected]
    Format settings             : CABAC / 5 Ref Frames
    Format settings, CABAC      : Yes
    Format settings, Reference  : 5 frames
    Codec ID                    : V_MPEG4/ISO/AVC
    Duration                    : 1 h 28 min
    Bit rate                    : 9 133 kb/s
    Width                       : 1 920 pixels
    Height                      : 808 pixels
    Display aspect ratio        : 2.40:1
    Frame rate mode             : Constant
    Frame rate                  : 23.976 FPS
    Color space                 : YUV
    Chroma subsampling          : 4:2:0
    Bit depth                   : 8 bits
    Scan type                   : Progressive
    Bits/(Pixel*Frame)          : 0.246
    Stream size                 : 5.62 GiB (86%)
    Writing library             : x264 core 148 r2705 3f5ed56
    Encoding settings           : cabac=1 / ref=5 / deblock=1:0:0 / analyse=0x3:0x133 / me=umh / subme=7 / psy=1 / psy_rd=1.00:0.00 / mixed_ref=1 / me_range=16 / chroma_me=1 / trellis=1 / 8x8dct=1 / cqm=0 / deadzone=21,11 / fast_pskip=0 / chroma_qp_offset=-2 / threads=24 / lookahead_threads=4 / sliced_threads=0 / nr=0 / decimate=1 / interlaced=0 / bluray_compat=0 / constrained_intra=0 / bframes=3 / b_pyramid=2 / b_adapt=1 / b_bias=0 / direct=1 / weightb=1 / open_gop=0 / weightp=2 / keyint=250 / keyint_min=23 / scenecut=40 / intra_refresh=0 / rc_lookahead=40 / rc=2pass / mbtree=1 / bitrate=9133 / ratetol=1.0 / qcomp=0.60 / qpmin=0 / qpmax=69 / qpstep=4 / cplxblur=20.0 / qblur=0.5 / ip_ratio=1.40 / aq=1:1.00
    Language                    : English
    Default                     : Yes
    Forced                      : No
    
    Audio
    ID                          : 2
    Format                      : DTS
    Format/Info                 : Digital Theater Systems
    Codec ID                    : A_DTS
    Duration                    : 1 h 28 min
    Bit rate mode               : Constant
    Bit rate                    : 1 509 kb/s
    Channel(s)                  : 6 channels
    Channel layout              : C L R Ls Rs LFE
    Sampling rate               : 48.0 kHz
    Frame rate                  : 93.750 FPS (512 SPF)
    Bit depth                   : 24 bits
    Compression mode            : Lossy
    Stream size                 : 952 MiB (14%)
    Language                    : English
    Default                     : Yes
    Forced                      : No
    
    Menu
    00:00:00.000                : en:00:00:00.000
    00:07:02.797                : en:00:07:02.797
    00:10:16.741                : en:00:10:16.741
    00:15:59.584                : en:00:15:59.584
    00:22:02.196                : en:00:22:02.196
    00:28:58.695                : en:00:28:58.695
    00:32:28.947                : en:00:32:28.947
    00:38:43.112                : en:00:38:43.112
    00:45:11.584                : en:00:45:11.584
    00:48:45.839                : en:00:48:45.839
    00:52:44.369                : en:00:52:44.369
    00:57:36.328                : en:00:57:36.328
    01:02:32.707                : en:01:02:32.707
    01:07:51.734                : en:01:07:51.734
    01:12:41.607                : en:01:12:41.607
    01:20:57.561                : en:01:20:57.561
    Download - Mirror 1:
    Download - Mirror 2:
     
  2. Loading...


Share This Page