Google Drive Boston.Strangler.2023.1080p.DSNP.WEB-DL.DDP5.1.Atmos.H.264-FLUX

Discussion in 'Web-DL / Webrip | 1080p' started by DDLbase, Mar 18, 2023.

New website version: https://ddlbase.com (final revisions being made) New website version: https://ddlbase.com (final revisions being made)
  1. DDLbase

    DDLbase Administrator Staff Member

    [​IMG]

    Rating: 6.5/10 based on 1,807 user ratings

    Genres: Crime, Drama, History

    Loretta McLaughlin was the reporter who first connected the murders and broke the story of the Boston Strangler. She and Jean Cole challenged the sexism of the early 1960s to report on the city's most notorious serial killer.

    [​IMG]
    Code:
    General
    Unique ID                   : 292916383871982977689773826762423197145 (0xDC5DA4BBC3DCAD0413EE9F41FEB0DDD9)
    Complete name               : Boston.Strangler.2023.1080p.DSNP.WEB-DL.DDP5.1.Atmos.H.264-FLUX.mkv
    Format                      : Matroska
    Format version              : Version 4
    File size                   : 5.80 GiB
    Duration                    : 1 h 52 min
    Overall bit rate mode       : Variable
    Overall bit rate            : 7 398 kb/s
    Writing application         : mkvmerge v74.0.0 ('You Oughta Know') 64-bit
    Writing library             : libebml v1.4.4 + libmatroska v1.7.1
    
    Video
    ID                          : 1
    Format                      : AVC
    Format/Info                 : Advanced Video Codec
    Format profile              : High@L4
    Format settings             : CABAC / 4 Ref Frames
    Format settings, CABAC      : Yes
    Format settings, Reference  : 4 frames
    Codec ID                    : V_MPEG4/ISO/AVC
    Duration                    : 1 h 52 min
    Bit rate mode               : Variable
    Bit rate                    : 6 624 kb/s
    Maximum bit rate            : 12.7 Mb/s
    Width                       : 1 920 pixels
    Height                      : 1 080 pixels
    Display aspect ratio        : 16:9
    Frame rate mode             : Constant
    Frame rate                  : 24.000 FPS
    Color space                 : YUV
    Chroma subsampling          : 4:2:0
    Bit depth                   : 8 bits
    Scan type                   : Progressive
    Bits/(Pixel*Frame)          : 0.133
    Stream size                 : 5.19 GiB (90%)
    Language                    : English
    Default                     : Yes
    Forced                      : No
    Color range                 : Limited
    Color primaries             : BT.709
    Transfer characteristics    : BT.709
    Matrix coefficients         : BT.709
    
    Audio
    ID                          : 2
    Format                      : E-AC-3 JOC
    Format/Info                 : Enhanced AC-3 with Joint Object Coding
    Commercial name             : Dolby Digital Plus with Dolby Atmos
    Codec ID                    : A_EAC3
    Duration                    : 1 h 52 min
    Bit rate mode               : Constant
    Bit rate                    : 768 kb/s
    Channel(s)                  : 6 channels
    Channel layout              : L R C LFE Ls Rs
    Sampling rate               : 48.0 kHz
    Frame rate                  : 31.250 FPS (1536 SPF)
    Compression mode            : Lossy
    Stream size                 : 617 MiB (10%)
    Language                    : English
    Service kind                : Complete Main
    Default                     : Yes
    Forced                      : No
    Complexity index            : 16
    Number of dynamic objects   : 15
    Bed channel count           : 1 channel
    Bed channel configuration   : LFE
    
    Text #1
    ID                          : 3
    Format                      : UTF-8
    Codec ID                    : S_TEXT/UTF8
    Codec ID/Info               : UTF-8 Plain Text
    Duration                    : 1 h 41 min
    Bit rate                    : 67 b/s
    Frame rate                  : 0.217 FPS
    Count of elements           : 1328
    Stream size                 : 50.6 KiB (0%)
    Language                    : English
    Default                     : No
    Forced                      : No
    
    Text #2
    ID                          : 4
    Format                      : UTF-8
    Codec ID                    : S_TEXT/UTF8
    Codec ID/Info               : UTF-8 Plain Text
    Duration                    : 1 h 42 min
    Bit rate                    : 76 b/s
    Frame rate                  : 0.249 FPS
    Count of elements           : 1533
    Stream size                 : 57.6 KiB (0%)
    Title                       : SDH
    Language                    : English
    Default                     : No
    Forced                      : No
    
    Text #3
    ID                          : 5
    Format                      : UTF-8
    Codec ID                    : S_TEXT/UTF8
    Codec ID/Info               : UTF-8 Plain Text
    Duration                    : 1 h 46 min
    Bit rate                    : 56 b/s
    Frame rate                  : 0.199 FPS
    Count of elements           : 1274
    Stream size                 : 43.9 KiB (0%)
    Language                    : Czech
    Default                     : No
    Forced                      : No
    
    Text #4
    ID                          : 6
    Format                      : UTF-8
    Codec ID                    : S_TEXT/UTF8
    Codec ID/Info               : UTF-8 Plain Text
    Duration                    : 1 h 46 min
    Bit rate                    : 60 b/s
    Frame rate                  : 0.166 FPS
    Count of elements           : 1062
    Stream size                 : 47.4 KiB (0%)
    Language                    : Danish
    Default                     : No
    Forced                      : No
    
    Text #5
    ID                          : 7
    Format                      : UTF-8
    Codec ID                    : S_TEXT/UTF8
    Codec ID/Info               : UTF-8 Plain Text
    Duration                    : 1 h 46 min
    Bit rate                    : 60 b/s
    Frame rate                  : 0.199 FPS
    Count of elements           : 1273
    Stream size                 : 47.4 KiB (0%)
    Language                    : German
    Default                     : No
    Forced                      : No
    
    Text #6
    ID                          : 8
    Format                      : UTF-8
    Codec ID                    : S_TEXT/UTF8
    Codec ID/Info               : UTF-8 Plain Text
    Duration                    : 1 h 46 min
    Bit rate                    : 95 b/s
    Frame rate                  : 0.209 FPS
    Count of elements           : 1335
    Stream size                 : 74.8 KiB (0%)
    Language                    : Greek
    Default                     : No
    Forced                      : No
    
    Text #7
    ID                          : 9
    Format                      : UTF-8
    Codec ID                    : S_TEXT/UTF8
    Codec ID/Info               : UTF-8 Plain Text
    Duration                    : 1 h 46 min
    Bit rate                    : 57 b/s
    Frame rate                  : 0.208 FPS
    Count of elements           : 1333
    Stream size                 : 45.3 KiB (0%)
    Title                       : Latin American
    Language                    : Spanish
    Default                     : No
    Forced                      : No
    
    Text #8
    ID                          : 10
    Format                      : UTF-8
    Codec ID                    : S_TEXT/UTF8
    Codec ID/Info               : UTF-8 Plain Text
    Duration                    : 1 h 46 min
    Bit rate                    : 58 b/s
    Frame rate                  : 0.214 FPS
    Count of elements           : 1371
    Stream size                 : 46.1 KiB (0%)
    Language                    : Spanish
    Default                     : No
    Forced                      : No
    
    Text #9
    ID                          : 11
    Format                      : UTF-8
    Codec ID                    : S_TEXT/UTF8
    Codec ID/Info               : UTF-8 Plain Text
    Duration                    : 1 h 46 min
    Bit rate                    : 61 b/s
    Frame rate                  : 0.215 FPS
    Count of elements           : 1375
    Stream size                 : 47.9 KiB (0%)
    Language                    : Finnish
    Default                     : No
    Forced                      : No
    
    Text #10
    ID                          : 12
    Format                      : UTF-8
    Codec ID                    : S_TEXT/UTF8
    Codec ID/Info               : UTF-8 Plain Text
    Duration                    : 1 h 46 min
    Bit rate                    : 62 b/s
    Frame rate                  : 0.214 FPS
    Count of elements           : 1372
    Stream size                 : 48.9 KiB (0%)
    Language                    : French
    Default                     : No
    Forced                      : No
    
    Text #11
    ID                          : 13
    Format                      : UTF-8
    Codec ID                    : S_TEXT/UTF8
    Codec ID/Info               : UTF-8 Plain Text
    Duration                    : 1 h 46 min
    Bit rate                    : 63 b/s
    Frame rate                  : 0.200 FPS
    Count of elements           : 1283
    Stream size                 : 49.3 KiB (0%)
    Language                    : Hungarian
    Default                     : No
    Forced                      : No
    
    Text #12
    ID                          : 14
    Format                      : UTF-8
    Codec ID                    : S_TEXT/UTF8
    Codec ID/Info               : UTF-8 Plain Text
    Duration                    : 1 h 46 min
    Bit rate                    : 59 b/s
    Frame rate                  : 0.212 FPS
    Count of elements           : 1357
    Stream size                 : 46.3 KiB (0%)
    Language                    : Italian
    Default                     : No
    Forced                      : No
    
    Text #13
    ID                          : 15
    Format                      : UTF-8
    Codec ID                    : S_TEXT/UTF8
    Codec ID/Info               : UTF-8 Plain Text
    Duration                    : 1 h 46 min
    Bit rate                    : 50 b/s
    Frame rate                  : 0.206 FPS
    Count of elements           : 1316
    Stream size                 : 39.7 KiB (0%)
    Language                    : Japanese
    Default                     : No
    Forced                      : No
    
    Text #14
    ID                          : 16
    Format                      : UTF-8
    Codec ID                    : S_TEXT/UTF8
    Codec ID/Info               : UTF-8 Plain Text
    Duration                    : 1 h 46 min
    Bit rate                    : 66 b/s
    Frame rate                  : 0.217 FPS
    Count of elements           : 1390
    Stream size                 : 51.8 KiB (0%)
    Language                    : Korean
    Default                     : No
    Forced                      : No
    
    Text #15
    ID                          : 17
    Format                      : UTF-8
    Codec ID                    : S_TEXT/UTF8
    Codec ID/Info               : UTF-8 Plain Text
    Duration                    : 1 h 46 min
    Bit rate                    : 56 b/s
    Frame rate                  : 0.175 FPS
    Count of elements           : 1118
    Stream size                 : 44.3 KiB (0%)
    Language                    : Dutch
    Default                     : No
    Forced                      : No
    
    Text #16
    ID                          : 18
    Format                      : UTF-8
    Codec ID                    : S_TEXT/UTF8
    Codec ID/Info               : UTF-8 Plain Text
    Duration                    : 1 h 46 min
    Bit rate                    : 55 b/s
    Frame rate                  : 0.161 FPS
    Count of elements           : 1029
    Stream size                 : 43.1 KiB (0%)
    Language                    : Norwegian
    Default                     : No
    Forced                      : No
    
    Text #17
    ID                          : 19
    Format                      : UTF-8
    Codec ID                    : S_TEXT/UTF8
    Codec ID/Info               : UTF-8 Plain Text
    Duration                    : 1 h 46 min
    Bit rate                    : 59 b/s
    Frame rate                  : 0.208 FPS
    Count of elements           : 1333
    Stream size                 : 46.3 KiB (0%)
    Language                    : Polish
    Default                     : No
    Forced                      : No
    
    Text #18
    ID                          : 20
    Format                      : UTF-8
    Codec ID                    : S_TEXT/UTF8
    Codec ID/Info               : UTF-8 Plain Text
    Duration                    : 1 h 46 min
    Bit rate                    : 56 b/s
    Frame rate                  : 0.206 FPS
    Count of elements           : 1320
    Stream size                 : 44.3 KiB (0%)
    Title                       : Brazilian
    Language                    : Portuguese
    Default                     : No
    Forced                      : No
    
    Text #19
    ID                          : 21
    Format                      : UTF-8
    Codec ID                    : S_TEXT/UTF8
    Codec ID/Info               : UTF-8 Plain Text
    Duration                    : 1 h 46 min
    Bit rate                    : 62 b/s
    Frame rate                  : 0.215 FPS
    Count of elements           : 1376
    Stream size                 : 48.6 KiB (0%)
    Language                    : Portuguese
    Default                     : No
    Forced                      : No
    
    Text #20
    ID                          : 22
    Format                      : UTF-8
    Codec ID                    : S_TEXT/UTF8
    Codec ID/Info               : UTF-8 Plain Text
    Duration                    : 1 h 46 min
    Bit rate                    : 60 b/s
    Frame rate                  : 0.180 FPS
    Count of elements           : 1153
    Stream size                 : 47.1 KiB (0%)
    Language                    : Romanian
    Default                     : No
    Forced                      : No
    
    Text #21
    ID                          : 23
    Format                      : UTF-8
    Codec ID                    : S_TEXT/UTF8
    Codec ID/Info               : UTF-8 Plain Text
    Duration                    : 1 h 46 min
    Bit rate                    : 56 b/s
    Frame rate                  : 0.209 FPS
    Count of elements           : 1341
    Stream size                 : 44.0 KiB (0%)
    Language                    : Slovak
    Default                     : No
    Forced                      : No
    
    Text #22
    ID                          : 24
    Format                      : UTF-8
    Codec ID                    : S_TEXT/UTF8
    Codec ID/Info               : UTF-8 Plain Text
    Duration                    : 1 h 46 min
    Bit rate                    : 59 b/s
    Frame rate                  : 0.215 FPS
    Count of elements           : 1375
    Stream size                 : 46.3 KiB (0%)
    Language                    : Swedish
    Default                     : No
    Forced                      : No
    
    Text #23
    ID                          : 25
    Format                      : UTF-8
    Codec ID                    : S_TEXT/UTF8
    Codec ID/Info               : UTF-8 Plain Text
    Duration                    : 1 h 46 min
    Bit rate                    : 62 b/s
    Frame rate                  : 0.183 FPS
    Count of elements           : 1171
    Stream size                 : 48.7 KiB (0%)
    Language                    : Turkish
    Default                     : No
    Forced                      : No
    
    Text #24
    ID                          : 26
    Format                      : UTF-8
    Codec ID                    : S_TEXT/UTF8
    Codec ID/Info               : UTF-8 Plain Text
    Duration                    : 1 h 46 min
    Bit rate                    : 54 b/s
    Frame rate                  : 0.218 FPS
    Count of elements           : 1394
    Stream size                 : 42.8 KiB (0%)
    Title                       : Hong Kong
    Language                    : Chinese
    Default                     : No
    Forced                      : No
    
    Text #25
    ID                          : 27
    Format                      : UTF-8
    Codec ID                    : S_TEXT/UTF8
    Codec ID/Info               : UTF-8 Plain Text
    Duration                    : 1 h 46 min
    Bit rate                    : 56 b/s
    Frame rate                  : 0.217 FPS
    Count of elements           : 1390
    Stream size                 : 44.2 KiB (0%)
    Title                       : Simplified
    Language                    : Chinese
    Default                     : No
    Forced                      : No
    
    Text #26
    ID                          : 28
    Format                      : UTF-8
    Codec ID                    : S_TEXT/UTF8
    Codec ID/Info               : UTF-8 Plain Text
    Duration                    : 1 h 46 min
    Bit rate                    : 53 b/s
    Frame rate                  : 0.218 FPS
    Count of elements           : 1394
    Stream size                 : 41.8 KiB (0%)
    Title                       : Traditional
    Language                    : Chinese
    Default                     : No
    Forced                      : No
    
    Menu
    01:45:22.375                : en:Credits


    Download - Mirror 1:
    Download - Mirror 2:
    Download - Mirror 3:
     
  2. Loading...

    Similar Threads - Boston Strangler 2023
    1. DDLbase
      Replies:
      0
      Views:
      799

Share This Page