Google Drive Brokeback Mountain 2005 1080p BluRay REMUX VC-1 DTS-HD MA 5.1-EPSiLON

Discussion in 'BD REMUX | 1080p' started by DDLbase, Jun 27, 2019.

  1. DDLbase

    DDLbase Administrator Staff Member

    [​IMG]

    Code:
    General
    Unique ID                                : 141402954682345556285775801831798793590 (0x6A6137ED4E669C2EFB22FE5F3F4AE576)
    Complete name                            : Brokeback.Mountain.2005.1080p.BluRay.REMUX.VC-1.DTS-HD.MA.5.1-EPSiLON.mkv
    Format                                   : Matroska
    Format version                           : Version 4 / Version 2
    File size                                : 22.9 GiB
    Duration                                 : 2 h 14 min
    Overall bit rate                         : 24.3 Mb/s
    Encoded date                             : UTC 2017-08-19 10:16:14
    Writing application                      : mkvmerge v14.0.0 ('Flow') 64bit
    Writing library                          : libebml v1.3.4 + libmatroska v1.4.5
    
    Video
    ID                                       : 1
    Format                                   : VC-1
    Format profile                           : [email protected]
    Codec ID                                 : V_MS/VFW/FOURCC / WVC1
    Codec ID/Hint                            : Microsoft
    Duration                                 : 2 h 14 min
    Bit rate                                 : 21.1 Mb/s
    Width                                    : 1 920 pixels
    Height                                   : 1 080 pixels
    Display aspect ratio                     : 16:9
    Frame rate mode                          : Constant
    Frame rate                               : 23.976 (24000/1001) FPS
    Color space                              : YUV
    Chroma subsampling                       : 4:2:0
    Bit depth                                : 8 bits
    Scan type                                : Progressive
    Compression mode                         : Lossy
    Bits/(Pixel*Frame)                       : 0.425
    Stream size                              : 19.8 GiB (87%)
    Title                                    : VC-1 Video / 21129 kbps / 1080p / 23.976 fps / 16:9 / Advanced Profile 3
    Language                                 : English
    Default                                  : Yes
    Forced                                   : No
    
    Audio
    ID                                       : 2
    Format                                   : DTS
    Format/Info                              : Digital Theater Systems
    Format profile                           : MA / Core
    Mode                                     : 16
    Format settings, Endianness              : Big
    Codec ID                                 : A_DTS
    Duration                                 : 2 h 14 min
    Bit rate mode                            : Variable / Constant
    Bit rate                                 : 3 137 kb/s / 1 509 kb/s
    Channel(s)                               : 6 channels
    Channel positions                        : Front: L C R, Side: L R, LFE
    Sampling rate                            : 48.0 kHz
    Frame rate                               : 93.750 FPS (512 SPF)
    Bit depth                                : 24 bits
    Compression mode                         : Lossless / Lossy
    Stream size                              : 2.95 GiB (13%)
    Title                                    : DTS-HD Master Audio / 3137 kbps / 5.1 / 48 kHz / 24-bit
    Language                                 : English
    Default                                  : Yes
    Forced                                   : No
    
    Text #1
    ID                                       : 3
    Format                                   : PGS
    Codec ID                                 : S_HDMV/PGS
    Codec ID/Info                            : Picture based subtitle format used on BDs/HD-DVDs
    Duration                                 : 2 h 6 min
    Bit rate                                 : 30.1 kb/s
    Count of elements                        : 2809
    Stream size                              : 27.3 MiB (0%)
    Title                                    : SDH
    Language                                 : English
    Default                                  : No
    Forced                                   : No
    
    Text #2
    ID                                       : 4
    Format                                   : PGS
    Codec ID                                 : S_HDMV/PGS
    Codec ID/Info                            : Picture based subtitle format used on BDs/HD-DVDs
    Duration                                 : 2 h 5 min
    Bit rate                                 : 26.3 kb/s
    Count of elements                        : 2268
    Stream size                              : 23.5 MiB (0%)
    Language                                 : French
    Default                                  : No
    Forced                                   : No
    
    Text #3
    ID                                       : 5
    Format                                   : PGS
    Codec ID                                 : S_HDMV/PGS
    Codec ID/Info                            : Picture based subtitle format used on BDs/HD-DVDs
    Duration                                 : 2 h 5 min
    Bit rate                                 : 23.8 kb/s
    Count of elements                        : 2268
    Stream size                              : 21.3 MiB (0%)
    Language                                 : Spanish
    Default                                  : No
    Forced                                   : No
    
    Menu
    00:00:00.000                             : en:Looking for Work
    00:06:53.162                             : en:Herding Sheep
    00:11:36.195                             : en:Against the Rules
    00:17:37.222                             : en:Trading Places
    00:23:03.048                             : en:Forty Winks
    00:28:48.768                             : en:First Light
    00:34:36.616                             : en:Bad News
    00:41:13.053                             : en:Separate Ways
    00:45:06.703                             : en:Tough Times
    00:53:33.251                             : en:Roped In
    01:00:25.747                             : en:Drop Me a Line
    01:05:18.539                             : en:What Now?
    01:13:15.182                             : en:Divorce Granted
    01:19:41.193                             : en:Don't Fool Me
    01:29:34.327                             : en:Suspicious Minds
    01:40:30.357                             : en:Let Me Be
    01:49:53.128                             : en:Return to Sender
    01:55:26.210                             : en:Crazy Notions
    02:02:47.360                             : en:The Power of Love
    02:07:55.668                             : en:End Titles
    Download:
     
  2. Loading...


Share This Page