Google Drive Bula.2022.1080p.WEB-DL.AAC2.0.x264-MARCOSKUPAL

Discussion in 'Web-DL / Webrip | 1080p' started by DDLbase, Nov 4, 2022.

  1. DDLbase

    DDLbase Administrator Staff Member

    [​IMG]

    Rating: 5.9/10 based on 201 user ratings

    Genre: Thriller

    A woman, who owns a laundry shop, uses her clients' clothes to satisfy her sexual fantasies. When she meets a hot police officer, she wants to have him no matter what it takes.

    [​IMG]
    Code:
    General
    Unique ID                   : 21177914584307348037533890206697584130 (0xFEEB7CDEA2B0CF4940D1BBE1D38F602)
    Complete name               : Bula.2022.1080p.WEB-DL.AAC2.0.x264-MARCOSKUPAL.mkv
    Format                      : Matroska
    Format version              : Version 4
    File size                   : 2.30 GiB
    Duration                    : 1 h 44 min
    Overall bit rate            : 3 159 kb/s
    Movie name                  : Bula.2022.1080p.WEB-DL.AAC2.0.x264-MARCOSKUPAL
    Encoded date                : UTC 2022-09-01 16:29:01
    Writing application         : mkvmerge v67.0.0 ('Under Stars') 64-bit
    Writing library             : libebml v1.4.2 + libmatroska v1.6.4
    Notes                       : Ripped by RSG. We have changed group tag for movies and will not revert anytime soon.
    
    Video
    ID                          : 1
    Format                      : AVC
    Format/Info                 : Advanced Video Codec
    Format profile              : [email protected]
    Format settings             : CABAC / 4 Ref Frames
    Format settings, CABAC      : Yes
    Format settings, Reference  : 4 frames
    Codec ID                    : V_MPEG4/ISO/AVC
    Duration                    : 1 h 44 min
    Bit rate                    : 3 059 kb/s
    Width                       : 1 920 pixels
    Height                      : 1 080 pixels
    Display aspect ratio        : 16:9
    Frame rate mode             : Constant
    Frame rate                  : 30.000 FPS
    Color space                 : YUV
    Chroma subsampling          : 4:2:0
    Bit depth                   : 8 bits
    Scan type                   : Progressive
    Bits/(Pixel*Frame)          : 0.049
    Stream size                 : 2.23 GiB (97%)
    Title                       : Bula.2022.1080p.WEB-DL.AAC2.0.x264-MARCOSKUPAL
    Writing library             : x264 core 142 r2495 6a301b6
    Encoding settings           : cabac=1 / ref=3 / deblock=1:0:0 / analyse=0x1:0x111 / me=hex / subme=7 / psy=1 / psy_rd=1.00:0.00 / mixed_ref=1 / me_range=16 / chroma_me=1 / trellis=1 / 8x8dct=0 / cqm=0 / deadzone=21,11 / fast_pskip=1 / chroma_qp_offset=-2 / threads=6 / lookahead_threads=1 / sliced_threads=0 / nr=0 / decimate=1 / interlaced=0 / bluray_compat=0 / constrained_intra=0 / bframes=3 / b_pyramid=2 / b_adapt=1 / b_bias=0 / direct=1 / weightb=1 / open_gop=0 / weightp=2 / keyint=60 / keyint_min=31 / scenecut=0 / intra_refresh=0 / rc_lookahead=40 / rc=crf / mbtree=1 / crf=20.0 / qcomp=0.60 / qpmin=0 / qpmax=69 / qpstep=4 / vbv_maxrate=3500 / vbv_bufsize=3200 / crf_max=0.0 / nal_hrd=none / filler=0 / ip_ratio=1.40 / aq=1:1.00
    Default                     : Yes
    Forced                      : No
    
    Audio
    ID                          : 2
    Format                      : AAC LC
    Format/Info                 : Advanced Audio Codec Low Complexity
    Codec ID                    : A_AAC-2
    Duration                    : 1 h 44 min
    Bit rate                    : 96.0 kb/s
    Channel(s)                  : 2 channels
    Channel layout              : L R
    Sampling rate               : 48.0 kHz
    Frame rate                  : 46.875 FPS (1024 SPF)
    Compression mode            : Lossy
    Stream size                 : 71.8 MiB (3%)
    Title                       : Bula.2022.1080p.WEB-DL.AAC2.0.x264-MARCOSKUPAL
    Language                    : Tagalog
    Default                     : Yes
    Forced                      : No
    
    Text
    ID                          : 3
    Format                      : UTF-8
    Codec ID                    : S_TEXT/UTF8
    Codec ID/Info               : UTF-8 Plain Text
    Duration                    : 1 h 38 min
    Bit rate                    : 35 b/s
    Frame rate                  : 0.187 FPS
    Count of elements           : 1107
    Stream size                 : 25.5 KiB (0%)
    Title                       : English
    Language                    : English
    Default                     : Yes
    Forced                      : No
    Download - Mirror 1:
    Download - Mirror 2:
     
  2. Loading...


Share This Page