Google Drive Candy.2006.PROPER.1080p.BluRay.x264-REGRET

Discussion in 'BDRip | 720p/1080p' started by DDLbase, Sep 15, 2020.

  1. DDLbase

    DDLbase Administrator Staff Member

    [​IMG]

    Rating: 7.2/10 based on 42,831 user ratings

    Genres: Drama, Romance

    A poet falls in love with an art student who gravitates to his bohemian lifestyle — and his love of heroin. Hooked as much on one another as they are on the drug, their relationship alternates between states of oblivion, self-destruction, and despair.

    [​IMG]
    Code:
    General
    Unique ID                   : 97632225474350548555808350976264196274 (0x4973485C435499862BAAA8447C5D50B2)
    Complete name               : Candy.2006.PROPER.1080p.BluRay.x264-REGRET.mkv
    Format                      : Matroska
    Format version              : Version 4
    File size                   : 7.65 GiB
    Duration                    : 1 h 47 min
    Overall bit rate mode       : Variable
    Overall bit rate            : 10.2 Mb/s
    Encoded date                : UTC 2019-11-23 21:32:00
    Writing application         : mkvmerge v40.0.0 ('Old Town Road + Pony') 64-bit
    Writing library             : libebml v1.3.9 + libmatroska v1.5.2
    
    Video
    ID                          : 1
    Format                      : AVC
    Format/Info                 : Advanced Video Codec
    Format profile              : [email protected]
    Format settings             : CABAC / 4 Ref Frames
    Format settings, CABAC      : Yes
    Format settings, Reference  : 4 frames
    Codec ID                    : V_MPEG4/ISO/AVC
    Duration                    : 1 h 47 min
    Bit rate                    : 9 622 kb/s
    Width                       : 1 920 pixels
    Height                      : 1 040 pixels
    Display aspect ratio        : 1.85:1
    Frame rate mode             : Constant
    Frame rate                  : 24.000 FPS
    Color space                 : YUV
    Chroma subsampling          : 4:2:0
    Bit depth                   : 8 bits
    Scan type                   : Progressive
    Bits/(Pixel*Frame)          : 0.201
    Stream size                 : 7.24 GiB (95%)
    Writing library             : x264 core 158 r2988 7817004
    Encoding settings           : cabac=1 / ref=4 / deblock=1:-3:-3 / analyse=0x3:0x133 / me=umh / subme=9 / psy=1 / psy_rd=1.00:0.00 / mixed_ref=1 / me_range=16 / chroma_me=1 / trellis=2 / 8x8dct=1 / cqm=0 / deadzone=21,11 / fast_pskip=0 / chroma_qp_offset=-2 / threads=24 / lookahead_threads=2 / sliced_threads=0 / nr=0 / decimate=1 / interlaced=0 / bluray_compat=0 / constrained_intra=0 / bframes=3 / b_pyramid=2 / b_adapt=1 / b_bias=0 / direct=3 / weightb=1 / open_gop=0 / weightp=2 / keyint=240 / keyint_min=24 / scenecut=40 / intra_refresh=0 / rc_lookahead=50 / rc=2pass / mbtree=1 / bitrate=9622 / ratetol=1.0 / qcomp=0.60 / qpmin=0 / qpmax=69 / qpstep=4 / cplxblur=20.0 / qblur=0.5 / ip_ratio=1.40 / aq=1:1.00
    Language                    : English
    Default                     : Yes
    Forced                      : No
    
    Audio
    ID                          : 2
    Format                      : FLAC
    Format/Info                 : Free Lossless Audio Codec
    Codec ID                    : A_FLAC
    Duration                    : 1 h 47 min
    Bit rate mode               : Variable
    Bit rate                    : 551 kb/s
    Channel(s)                  : 2 channels
    Channel layout              : L R
    Sampling rate               : 48.0 kHz
    Frame rate                  : 11.719 FPS (4096 SPF)
    Bit depth                   : 16 bits
    Compression mode            : Lossless
    Delay relative to video     : 1 s 0 ms
    Stream size                 : 424 MiB (5%)
    Writing library             : libFLAC 1.2.1 (UTC 2007-09-17)
    Language                    : English
    Default                     : Yes
    Forced                      : No
    
    Text #1
    ID                          : 3
    Format                      : UTF-8
    Codec ID                    : S_TEXT/UTF8
    Codec ID/Info               : UTF-8 Plain Text
    Duration                    : 1 h 46 min
    Bit rate                    : 49 b/s
    Count of elements           : 1499
    Stream size                 : 38.3 KiB (0%)
    Title                       : English
    Language                    : English
    Default                     : No
    Forced                      : No
    
    Text #2
    ID                          : 4
    Format                      : UTF-8
    Codec ID                    : S_TEXT/UTF8
    Codec ID/Info               : UTF-8 Plain Text
    Duration                    : 1 h 47 min
    Bit rate                    : 85 b/s
    Count of elements           : 1650
    Stream size                 : 67.5 KiB (0%)
    Title                       : English SDH
    Language                    : English
    Default                     : No
    Forced                      : No
    
    Menu
    00:00:00.000                : en:00:00:00.000
    00:03:23.125                : en:00:03:23.125
    00:06:37.958                : en:00:06:37.958
    00:12:08.250                : en:00:12:08.250
    00:20:05.542                : en:00:20:05.542
    00:28:00.042                : en:00:28:00.042
    00:35:58.667                : en:00:35:58.667
    00:40:55.458                : en:00:40:55.458
    00:49:02.708                : en:00:49:02.708
    00:52:44.417                : en:00:52:44.417
    00:59:32.458                : en:00:59:32.458
    01:05:07.500                : en:01:05:07.500
    01:14:36.958                : en:01:14:36.958
    01:22:07.208                : en:01:22:07.208
    01:28:46.250                : en:01:28:46.250
    01:34:50.542                : en:01:34:50.542
    01:41:53.417                : en:01:41:53.417
    Download:
     
  2. Loading...


Share This Page