Google Drive Captain.Marvel.2019.2160P.UHD.BluRay.REMUX.HDR10.HEVC.Atmos.7.1-OMEGA

Discussion in 'BD REMUX | 4K' started by DDLbase, Apr 13, 2020.

  1. DDLbase

    DDLbase Administrator Staff Member

    [​IMG]

    Captain Marvel (2019)

    [​IMG] 6.9/10 --- [​IMG]394,382

    Plot Summary

    After crashing an experimental aircraft, Air Force pilot Carol Danvers is discovered by the Kree and trained as a member of the elite Starforce Military under the command of her mentor Yon-Rogg. Six years later, after escaping to Earth while under attack by the Skrulls, Danvers begins to discover there's more to her past. With help from S.H.I.E.L.D. agent Nick Fury, they set out to unravel the truth.

    Movie Info
    • Rating: PG-13
    • Genre: Action, Adventure, Sci-Fi
    • Directed By: Anna Boden, Ryan Fleck
    • Written By: Anna Boden (screenplay by), Ryan Fleck (screenplay by), Geneva Robertson-Dworet (screenplay by), Nicole Perlman (story by), Meg LeFauve (story by), Anna Boden (story by), Ryan Fleck (story by), Geneva Robertson-Dworet (story by)
    • Starring: Brie Larson, Samuel L. Jackson, Ben Mendelsohn, Jude Law
    • Release Date: 08 Mar 2019
    • Runtime: 123 min
    • On Disk/Streaming: 11 Jun 2019
    • Box Office: N/A
    • Awards: 6 wins & 34 nominations.
    • Studio: Marvel Studios
    Media Info

    Code:
    General
    
    Complete name                            : Captain.Marvel.2019.2160P.UHD.BluRay.REMUX.HDR10.HEVC.Atmos.7.1-OMEGA.mkv
    
    Format                                  : Matroska
    
    Format version                          : Version 2
    
    File size                                : 45.4 GiB
    
    Duration                                : 2 h 3 min
    
    Overall bit rate mode                    : Variable
    
    Overall bit rate                        : 52.6 Mb/s
    
    Movie name                              : CAPTAIN MARVEL - ULTRA HD
    
    Encoded date                            : UTC 2020-02-05 08:23:08
    
    Writing application                      : MakeMKV v1.14.5 win(x64-release)
    
    Writing library                          : libmakemkv v1.14.5 (1.3.5/1.4.7) win(x64-release)
    
    
    
    Video
    
    ID                                      : 1
    
    ID in the original source medium        : 4113 (0x1011)
    
    Format                                  : HEVC
    
    Format/Info                              : High Efficiency Video Coding
    
    Format profile                          : Main [email protected]@High
    
    Codec ID                                : V_MPEGH/ISO/HEVC
    
    Duration                                : 2 h 3 min
    
    Bit rate                                : 47.0 Mb/s
    
    Width                                    : 3 840 pixels
    
    Height                                  : 2 160 pixels
    
    Display aspect ratio                    : 16:9
    
    Frame rate mode                          : Constant
    
    Frame rate                              : 23.976 (24000/1001) FPS
    
    Color space                              : YUV
    
    Chroma subsampling                      : 4:2:0 (Type 2)
    
    Bit depth                                : 10 bits
    
    Bits/(Pixel*Frame)                      : 0.236
    
    Stream size                              : 40.6 GiB (89%)
    
    Writing library                          : ATEME Titan File 3.9.0 (4.9.0.0)     
    
    Language                                : English
    
    Default                                  : No
    
    Forced                                  : No
    
    Color range                              : Limited
    
    Color primaries                          : BT.2020
    
    Transfer characteristics                : PQ
    
    Matrix coefficients                      : BT.2020 non-constant
    
    Original source medium                  : Blu-ray
    
    Mastering display color primaries        : Display P3
    
    Mastering display luminance              : min: 0.0020 cd/m2, max: 1000 cd/m2
    
    
    
    Audio #1
    
    ID                                      : 2
    
    ID in the original source medium        : 4352 (0x1100)
    
    Format                                  : TrueHD
    
    Format profile                          : TrueHD+Atmos / TrueHD
    
    Codec ID                                : A_TRUEHD
    
    Duration                                : 2 h 3 min
    
    Bit rate mode                            : Variable
    
    Bit rate                                : 4 613 kb/s
    
    Maximum bit rate                        : 7 317 kb/s
    
    Channel(s)                              : Object Based / 8 channels
    
    Channel positions                        : Object Based / Front: L C R, Side: L R, Back: L R, LFE
    
    Sampling rate                            :  / 48.0 kHz
    
    Frame rate                              : 1 200.000 FPS (40 SPF)
    
    Bit depth                                : 24 bits
    
    Compression mode                        : Lossless
    
    Stream size                              : 3.99 GiB (9%)
    
    Title                                    : Surround 7.1
    
    Language                                : English
    
    Default                                  : Yes
    
    Forced                                  : No
    
    Original source medium                  : Blu-ray
    
    
    
    Audio #2
    
    ID                                      : 3
    
    ID in the original source medium        : 4352 (0x1100)
    
    Format                                  : AC-3
    
    Format/Info                              : Audio Coding 3
    
    Codec ID                                : A_AC3
    
    Duration                                : 2 h 3 min
    
    Bit rate mode                            : Constant
    
    Bit rate                                : 640 kb/s
    
    Channel(s)                              : 6 channels
    
    Channel positions                        : Front: L C R, Side: L R, LFE
    
    Sampling rate                            : 48.0 kHz
    
    Frame rate                              : 31.250 FPS (1536 SPF)
    
    Bit depth                                : 16 bits
    
    Compression mode                        : Lossy
    
    Stream size                              : 566 MiB (1%)
    
    Title                                    : Surround 5.1
    
    Language                                : English
    
    Service kind                            : Complete Main
    
    Default                                  : No
    
    Forced                                  : No
    
    Original source medium                  : Blu-ray
    
    
    
    Text #1
    
    ID                                      : 4
    
    ID in the original source medium        : 4768 (0x12A0)
    
    Format                                  : PGS
    
    Codec ID                                : S_HDMV/PGS
    
    Codec ID/Info                            : Picture based subtitle format used on BDs/HD-DVDs
    
    Duration                                : 2 h 2 min
    
    Bit rate                                : 32.8 kb/s
    
    Count of elements                        : 3330
    
    Stream size                              : 28.7 MiB (0%)
    
    Language                                : English
    
    Default                                  : No
    
    Forced                                  : No
    
    Original source medium                  : Blu-ray
    
    
    
    Text #2
    
    ID                                      : 6
    
    ID in the original source medium        : 4769 (0x12A1)
    
    Format                                  : PGS
    
    Codec ID                                : S_HDMV/PGS
    
    Codec ID/Info                            : Picture based subtitle format used on BDs/HD-DVDs
    
    Duration                                : 2 h 2 min
    
    Bit rate                                : 29.3 kb/s
    
    Count of elements                        : 2656
    
    Stream size                              : 25.6 MiB (0%)
    
    Language                                : French
    
    Default                                  : No
    
    Forced                                  : No
    
    Original source medium                  : Blu-ray
    
    
    
    Text #3
    
    ID                                      : 8
    
    ID in the original source medium        : 4770 (0x12A2)
    
    Format                                  : PGS
    
    Codec ID                                : S_HDMV/PGS
    
    Codec ID/Info                            : Picture based subtitle format used on BDs/HD-DVDs
    
    Duration                                : 2 h 2 min
    
    Bit rate                                : 24.0 kb/s
    
    Count of elements                        : 2582
    
    Stream size                              : 21.0 MiB (0%)
    
    Language                                : French
    
    Default                                  : No
    
    Forced                                  : No
    
    Original source medium                  : Blu-ray
    
    
    
    Text #4
    
    ID                                      : 10
    
    ID in the original source medium        : 4771 (0x12A3)
    
    Format                                  : PGS
    
    Codec ID                                : S_HDMV/PGS
    
    Codec ID/Info                            : Picture based subtitle format used on BDs/HD-DVDs
    
    Duration                                : 2 h 2 min
    
    Bit rate                                : 28.1 kb/s
    
    Count of elements                        : 2614
    
    Stream size                              : 24.6 MiB (0%)
    
    Language                                : Spanish
    
    Default                                  : No
    
    Forced                                  : No
    
    Original source medium                  : Blu-ray
    
    
    
    Text #5
    
    ID                                      : 12
    
    ID in the original source medium        : 4772 (0x12A4)
    
    Format                                  : PGS
    
    Codec ID                                : S_HDMV/PGS
    
    Codec ID/Info                            : Picture based subtitle format used on BDs/HD-DVDs
    
    Duration                                : 2 h 2 min
    
    Bit rate                                : 25.9 kb/s
    
    Count of elements                        : 2600
    
    Stream size                              : 22.6 MiB (0%)
    
    Language                                : German
    
    Default                                  : No
    
    Forced                                  : No
    
    Original source medium                  : Blu-ray
    
    
    
    Text #6
    
    ID                                      : 14
    
    ID in the original source medium        : 4773 (0x12A5)
    
    Format                                  : PGS
    
    Codec ID                                : S_HDMV/PGS
    
    Codec ID/Info                            : Picture based subtitle format used on BDs/HD-DVDs
    
    Duration                                : 2 h 2 min
    
    Bit rate                                : 28.7 kb/s
    
    Count of elements                        : 2594
    
    Stream size                              : 25.1 MiB (0%)
    
    Language                                : Italian
    
    Default                                  : No
    
    Forced                                  : No
    
    Original source medium                  : Blu-ray
    
    
    
    Text #7
    
    ID                                      : 16
    
    ID in the original source medium        : 4774 (0x12A6)
    
    Format                                  : PGS
    
    Codec ID                                : S_HDMV/PGS
    
    Codec ID/Info                            : Picture based subtitle format used on BDs/HD-DVDs
    
    Duration                                : 2 h 1 min
    
    Bit rate                                : 20.5 kb/s
    
    Count of elements                        : 2328
    
    Stream size                              : 17.8 MiB (0%)
    
    Language                                : Japanese
    
    Default                                  : No
    
    Forced                                  : No
    
    Original source medium                  : Blu-ray
    
    
    
    Text #8
    
    ID                                      : 18
    
    ID in the original source medium        : 4775 (0x12A7)
    
    Format                                  : PGS
    
    Codec ID                                : S_HDMV/PGS
    
    Codec ID/Info                            : Picture based subtitle format used on BDs/HD-DVDs
    
    Duration                                : 2 h 2 min
    
    Bit rate                                : 17.0 kb/s
    
    Count of elements                        : 2638
    
    Stream size                              : 14.9 MiB (0%)
    
    Language                                : Chinese
    
    Default                                  : No
    
    Forced                                  : No
    
    Original source medium                  : Blu-ray
    
    
    
    Text #9
    
    ID                                      : 20
    
    ID in the original source medium        : 4776 (0x12A8)
    
    Format                                  : PGS
    
    Codec ID                                : S_HDMV/PGS
    
    Codec ID/Info                            : Picture based subtitle format used on BDs/HD-DVDs
    
    Duration                                : 2 h 2 min
    
    Bit rate                                : 25.9 kb/s
    
    Count of elements                        : 2014
    
    Stream size                              : 22.7 MiB (0%)
    
    Language                                : Dutch
    
    Default                                  : No
    
    Forced                                  : No
    
    Original source medium                  : Blu-ray
    
    
    
    Text #10
    
    ID                                      : 22
    
    ID in the original source medium        : 4777 (0x12A9)
    
    Format                                  : PGS
    
    Codec ID                                : S_HDMV/PGS
    
    Codec ID/Info                            : Picture based subtitle format used on BDs/HD-DVDs
    
    Duration                                : 2 h 2 min
    
    Bit rate                                : 15.1 kb/s
    
    Count of elements                        : 2624
    
    Stream size                              : 13.2 MiB (0%)
    
    Language                                : Korean
    
    Default                                  : No
    
    Forced                                  : No
    
    Original source medium                  : Blu-ray
    
    
    
    Text #11
    
    ID                                      : 24
    
    ID in the original source medium        : 4778 (0x12AA)
    
    Format                                  : PGS
    
    Codec ID                                : S_HDMV/PGS
    
    Codec ID/Info                            : Picture based subtitle format used on BDs/HD-DVDs
    
    Duration                                : 2 h 2 min
    
    Bit rate                                : 25.6 kb/s
    
    Count of elements                        : 2600
    
    Stream size                              : 22.4 MiB (0%)
    
    Language                                : Norwegian
    
    Default                                  : No
    
    Forced                                  : No
    
    Original source medium                  : Blu-ray
    
    
    
    Text #12
    
    ID                                      : 26
    
    ID in the original source medium        : 4779 (0x12AB)
    
    Format                                  : PGS
    
    Codec ID                                : S_HDMV/PGS
    
    Codec ID/Info                            : Picture based subtitle format used on BDs/HD-DVDs
    
    Duration                                : 2 h 2 min
    
    Bit rate                                : 23.6 kb/s
    
    Count of elements                        : 1760
    
    Stream size                              : 20.6 MiB (0%)
    
    Language                                : Swedish
    
    Default                                  : No
    
    Forced                                  : No
    
    Original source medium                  : Blu-ray
    
    
    
    Text #13
    
    ID                                      : 28
    
    ID in the original source medium        : 4780 (0x12AC)
    
    Format                                  : PGS
    
    Codec ID                                : S_HDMV/PGS
    
    Codec ID/Info                            : Picture based subtitle format used on BDs/HD-DVDs
    
    Duration                                : 2 h 2 min
    
    Bit rate                                : 19.5 kb/s
    
    Count of elements                        : 2642
    
    Stream size                              : 17.1 MiB (0%)
    
    Language                                : Chinese
    
    Default                                  : No
    
    Forced                                  : No
    
    Original source medium                  : Blu-ray
    
    
    
    Text #14
    
    ID                                      : 30
    
    ID in the original source medium        : 4781 (0x12AD)
    
    Format                                  : PGS
    
    Codec ID                                : S_HDMV/PGS
    
    Codec ID/Info                            : Picture based subtitle format used on BDs/HD-DVDs
    
    Duration                                : 1 h 55 min
    
    Bit rate                                : 660 b/s
    
    Count of elements                        : 74
    
    Stream size                              : 559 KiB (0%)
    
    Language                                : French
    
    Default                                  : No
    
    Forced                                  : No
    
    Original source medium                  : Blu-ray
    
    
    
    Text #15
    
    ID                                      : 32
    
    ID in the original source medium        : 4782 (0x12AE)
    
    Format                                  : PGS
    
    Codec ID                                : S_HDMV/PGS
    
    Codec ID/Info                            : Picture based subtitle format used on BDs/HD-DVDs
    
    Duration                                : 1 h 55 min
    
    Bit rate                                : 350 b/s
    
    Count of elements                        : 28
    
    Stream size                              : 296 KiB (0%)
    
    Language                                : French
    
    Default                                  : No
    
    Forced                                  : No
    
    Original source medium                  : Blu-ray
    
    
    
    Text #16
    
    ID                                      : 34
    
    ID in the original source medium        : 4783 (0x12AF)
    
    Format                                  : PGS
    
    Codec ID                                : S_HDMV/PGS
    
    Codec ID/Info                            : Picture based subtitle format used on BDs/HD-DVDs
    
    Duration                                : 1 h 55 min
    
    Bit rate                                : 452 b/s
    
    Count of elements                        : 32
    
    Stream size                              : 383 KiB (0%)
    
    Language                                : Spanish
    
    Default                                  : No
    
    Forced                                  : No
    
    Original source medium                  : Blu-ray
    
    
    
    Text #17
    
    ID                                      : 36
    
    ID in the original source medium        : 4784 (0x12B0)
    
    Format                                  : PGS
    
    Codec ID                                : S_HDMV/PGS
    
    Codec ID/Info                            : Picture based subtitle format used on BDs/HD-DVDs
    
    Duration                                : 1 h 55 min
    
    Bit rate                                : 398 b/s
    
    Count of elements                        : 28
    
    Stream size                              : 337 KiB (0%)
    
    Language                                : Italian
    
    Default                                  : No
    
    Forced                                  : No
    
    Original source medium                  : Blu-ray
    
    
    
    Text #18
    
    ID                                      : 38
    
    ID in the original source medium        : 4785 (0x12B1)
    
    Format                                  : PGS
    
    Codec ID                                : S_HDMV/PGS
    
    Codec ID/Info                            : Picture based subtitle format used on BDs/HD-DVDs
    
    Duration                                : 1 h 53 min
    
    Bit rate                                : 421 b/s
    
    Count of elements                        : 38
    
    Stream size                              : 351 KiB (0%)
    
    Language                                : Japanese
    
    Default                                  : No
    
    Forced                                  : No
    
    Original source medium                  : Blu-ray
    
    
    
    Menu
    
    00:00:00.000                            : en:Chapter 01
    
    00:06:51.285                            : en:Chapter 02
    
    00:14:07.012                            : en:Chapter 03
    
    00:23:17.437                            : en:Chapter 04
    
    00:29:37.192                            : en:Chapter 05
    
    00:35:06.938                            : en:Chapter 06
    
    00:44:07.227                            : en:Chapter 07
    
    00:50:42.581                            : en:Chapter 08
    
    00:56:17.791                            : en:Chapter 09
    
    01:03:01.986                            : en:Chapter 10
    
    01:11:16.563                            : en:Chapter 11
    
    01:17:48.330                            : en:Chapter 12
    
    01:27:02.175                            : en:Chapter 13
    
    01:33:21.512                            : en:Chapter 14
    
    01:40:50.669                            : en:Chapter 15
    
    01:46:23.919                            : en:Chapter 16
    
    01:52:49.053                            : en:Chapter 17
    Download:
     
  2. Loading...


Share This Page