Google Drive Catch.Me.If.You.Can.2002.1080p.BluRay.x264-HD4U

Discussion in 'BDRip | 720p/1080p' started by DDLbase, Aug 3, 2019.

  1. DDLbase

    DDLbase Administrator Staff Member

    [​IMG]
    [​IMG]
    Code:
    General
    Complete name               : C:\catch.me.if.you.can.2002.1080p.bluray.x264-hd4u.mkv
    Format                      : Matroska
    Format version              : Version 2
    File size                   : 9.84 GiB
    Duration                    : 2 h 20 min
    Overall bit rate            : 10.0 Mb/s
    Writing application         : mkvmerge v4.1.1 ('Bouncin' Back') built on Jul  3 2010 22:54:08
    Writing library             : libebml v1.0.0 + libmatroska v1.0
    
    Video
    ID                          : 1
    Format                      : AVC
    Format/Info                 : Advanced Video Codec
    Format profile              : [email protected]
    Format settings             : CABAC / 4 Ref Frames
    Format settings, CABAC      : Yes
    Format settings, ReFrames   : 4 frames
    Codec ID                    : V_MPEG4/ISO/AVC
    Duration                    : 2 h 20 min
    Bit rate                    : 8 500 kb/s
    Width                       : 1 920 pixels
    Height                      : 1 040 pixels
    Display aspect ratio        : 1.85:1
    Frame rate mode             : Constant
    Frame rate                  : 23.976 FPS
    Color space                 : YUV
    Chroma subsampling          : 4:2:0
    Bit depth                   : 8 bits
    Scan type                   : Progressive
    Bits/(Pixel*Frame)          : 0.178
    Stream size                 : 8.16 GiB (83%)
    Writing library             : x264 core 129 r2230 1cffe9f
    Encoding settings           : cabac=1 / ref=4 / deblock=1:0:0 / analyse=0x3:0x133 / me=umh / subme=7 / psy=1 / psy_rd=1.00:0.00 / mixed_ref=1 / me_range=16 / chroma_me=1 / trellis=1 / 8x8dct=1 / cqm=0 / deadzone=21,11 / fast_pskip=0 / chroma_qp_offset=-2 / threads=12 / lookahead_threads=2 / sliced_threads=0 / nr=0 / decimate=1 / interlaced=0 / bluray_compat=0 / constrained_intra=0 / bframes=3 / b_pyramid=2 / b_adapt=1 / b_bias=0 / direct=1 / weightb=1 / open_gop=0 / weightp=2 / keyint=250 / keyint_min=23 / scenecut=40 / intra_refresh=0 / rc_lookahead=40 / rc=2pass / mbtree=1 / bitrate=8500 / ratetol=1.0 / qcomp=0.60 / qpmin=0 / qpmax=69 / qpstep=4 / cplxblur=20.0 / qblur=0.5 / ip_ratio=1.40 / aq=1:1.00
    Language                    : English
    Default                     : Yes
    Forced                      : No
    
    Audio
    ID                          : 2
    Format                      : DTS
    Format/Info                 : Digital Theater Systems
    Codec ID                    : A_DTS
    Duration                    : 2 h 20 min
    Bit rate mode               : Constant
    Bit rate                    : 1 509 kb/s
    Channel(s)                  : 6 channels
    Channel layout              : C L R Ls Rs LFE
    Sampling rate               : 48.0 kHz
    Frame rate                  : 93.750 FPS (512 SPF)
    Bit depth                   : 24 bits
    Compression mode            : Lossy
    Stream size                 : 1.48 GiB (15%)
    Language                    : English
    Default                     : Yes
    Forced                      : No
    
    Text #1
    ID                          : 3
    Format                      : UTF-8
    Codec ID                    : S_TEXT/UTF8
    Codec ID/Info               : UTF-8 Plain Text
    Language                    : English
    Default                     : No
    Forced                      : No
    
    Text #2
    ID                          : 4
    Format                      : UTF-8
    Codec ID                    : S_TEXT/UTF8
    Codec ID/Info               : UTF-8 Plain Text
    Language                    : English
    Default                     : No
    Forced                      : No
    
    Menu
    00:00:00.000                : en:00:00:00.000
    00:04:43.909                : en:00:04:43.909
    00:10:59.450                : en:00:10:59.450
    00:18:35.281                : en:00:18:35.281
    00:25:56.430                : en:00:25:56.430
    00:28:58.737                : en:00:28:58.737
    00:33:59.663                : en:00:33:59.663
    00:38:37.065                : en:00:38:37.065
    00:42:09.944                : en:00:42:09.944
    00:49:06.068                : en:00:49:06.068
    00:56:54.870                : en:00:56:54.870
    01:03:42.527                : en:01:03:42.527
    01:10:05.952                : en:01:10:05.952
    01:22:26.733                : en:01:22:26.733
    01:32:10.400                : en:01:32:10.400
    01:38:26.067                : en:01:38:26.067
    01:43:32.581                : en:01:43:32.581
    01:49:50.417                : en:01:49:50.417
    01:58:00.907                : en:01:58:00.907
    02:04:01.476                : en:02:04:01.476
    02:12:33.279                : en:02:12:33.279
    02:16:00.194                : en:02:16:00.194
    Download:
     
  2. Loading...


Share This Page