Google Drive Censor.2021.1080p.AMZN.WEB-DL.DDP5.1.H.264-TEPES

Discussion in 'Web-DL / Webrip | 1080p' started by DDLbase, Jun 19, 2021.

  1. DDLbase

    DDLbase Administrator Staff Member

    [​IMG]

    Rating: 6.2/10 based on 496 user ratings

    Genre: Horror

    After viewing a strangely familiar video nasty, Enid, a film censor, sets out to solve the past mystery of her sister's disappearance, embarking on a quest that dissolves the line between fiction and reality.

    [​IMG]
    Code:
    General
    Unique ID                   : 201102566311216369620101467110260999492 (0x974AF2080A61D2E0EC0F510F124E0544)
    Complete name               : Censor.2021.1080p.AMZN.WEB-DL.DDP5.1.H.264-TEPES.mkv
    Format                      : Matroska
    Format version              : Version 4
    File size                   : 5.44 GiB
    Duration                    : 1 h 23 min
    Overall bit rate            : 9 317 kb/s
    Writing application         : mkvmerge v58.0.0 ('Supper's Ready') 64-bit
    Writing library             : libebml v1.4.2 + libmatroska v1.6.4
    
    Video
    ID                          : 1
    Format                      : AVC
    Format/Info                 : Advanced Video Codec
    Format profile              : [email protected]
    Format settings             : CABAC / 4 Ref Frames
    Format settings, CABAC      : Yes
    Format settings, Reference  : 4 frames
    Codec ID                    : V_MPEG4/ISO/AVC
    Duration                    : 1 h 23 min
    Bit rate mode               : Constant
    Bit rate                    : 8 492 kb/s
    Nominal bit rate            : 10 000 kb/s
    Width                       : 1 920 pixels
    Height                      : 800 pixels
    Display aspect ratio        : 2.40:1
    Frame rate mode             : Constant
    Frame rate                  : 23.976 (24000/1001) FPS
    Color space                 : YUV
    Chroma subsampling          : 4:2:0
    Bit depth                   : 8 bits
    Scan type                   : Progressive
    Bits/(Pixel*Frame)          : 0.231
    Stream size                 : 4.96 GiB (91%)
    Default                     : Yes
    Forced                      : No
    Color range                 : Limited
    Color primaries             : BT.709
    Transfer characteristics    : BT.709
    Matrix coefficients         : BT.709
    
    Audio
    ID                          : 2
    Format                      : E-AC-3
    Format/Info                 : Enhanced AC-3
    Commercial name             : Dolby Digital Plus
    Codec ID                    : A_EAC3
    Duration                    : 1 h 23 min
    Bit rate mode               : Constant
    Bit rate                    : 640 kb/s
    Channel(s)                  : 6 channels
    Channel layout              : L R C LFE Ls Rs
    Sampling rate               : 48.0 kHz
    Frame rate                  : 31.250 FPS (1536 SPF)
    Compression mode            : Lossy
    Stream size                 : 383 MiB (7%)
    Language                    : English
    Service kind                : Complete Main
    Default                     : Yes
    Forced                      : No
    
    Text
    ID                          : 3
    Format                      : UTF-8
    Codec ID                    : S_TEXT/UTF8
    Codec ID/Info               : UTF-8 Plain Text
    Title                       : English (SDH)
    Language                    : English
    Default                     : No
    Forced                      : No
    Download - Mirror 1:
    Download - Mirror 2:
     
  2. Loading...


Share This Page