Google Drive Champions.2023.2160p.WEB-DL.DDP5.1.Atmos.DV.HDR.H.265-FLUX

Discussion in 'Web-DL / Webrip | 4K' started by DDLbase, Mar 29, 2023.

New website version: https://ddlbase.com (final revisions being made) New website version: https://ddlbase.com (final revisions being made)
  1. DDLbase

    DDLbase Administrator Staff Member

    [​IMG]

    Rating: 7.1/10 based on 2,476 user ratings

    Genres: Comedy, Drama, Sport

    A former minor-league basketball coach is ordered by the court to manage a team of players with intellectual disabilities. He soon realizes that despite his doubts, together, this team can g…

    [​IMG]
    Code:
    General
    Unique ID                   : 106870781594630564614252175309664989617 (0x506690582AAB58A11EA3E54B620CB1B1)
    Complete name               : Champions.2023.2160p.WEB-DL.DDP5.1.Atmos.DV.HDR.H.265-FLUX.mkv
    Format                      : Matroska
    Format version              : Version 4
    File size                   : 21.6 GiB
    Duration                    : 2 h 4 min
    Overall bit rate            : 24.9 Mb/s
    Writing application         : mkvmerge v74.0.0 ('You Oughta Know') 64-bit
    Writing library             : libebml v1.4.4 + libmatroska v1.7.1
    
    Video
    ID                          : 1
    Format                      : HEVC
    Format/Info                 : High Efficiency Video Coding
    Format profile              : Main 10@L5@High
    HDR format                  : Dolby Vision, Version 1.0, dvhe.08.06, BL+RPU, HDR10 compatible / SMPTE ST 2094 App 4, Version 1, HDR10+ Profile B compatible
    Codec ID                    : V_MPEGH/ISO/HEVC
    Duration                    : 2 h 4 min
    Bit rate                    : 24.2 Mb/s
    Width                       : 3 832 pixels
    Height                      : 1 600 pixels
    Display aspect ratio        : 2.40:1
    Frame rate mode             : Constant
    Frame rate                  : 23.976 (24000/1001) FPS
    Color space                 : YUV
    Chroma subsampling          : 4:2:0 (Type 2)
    Bit depth                   : 10 bits
    Bits/(Pixel*Frame)          : 0.165
    Stream size                 : 21.0 GiB (97%)
    Language                    : English
    Default                     : Yes
    Forced                      : No
    Color range                 : Limited
    Color primaries             : BT.2020
    Transfer characteristics    : PQ
    Matrix coefficients         : BT.2020 non-constant
    Mastering display color pri : Display P3
    Mastering display luminance : min: 0.0050 cd/m2, max: 4000 cd/m2
    Maximum Content Light Level : 1070 cd/m2
    Maximum Frame-Average Light : 554 cd/m2
    
    Audio
    ID                          : 2
    Format                      : E-AC-3 JOC
    Format/Info                 : Enhanced AC-3 with Joint Object Coding
    Commercial name             : Dolby Digital Plus with Dolby Atmos
    Codec ID                    : A_EAC3
    Duration                    : 2 h 4 min
    Bit rate mode               : Constant
    Bit rate                    : 768 kb/s
    Channel(s)                  : 6 channels
    Channel layout              : L R C LFE Ls Rs
    Sampling rate               : 48.0 kHz
    Frame rate                  : 31.250 FPS (1536 SPF)
    Compression mode            : Lossy
    Stream size                 : 683 MiB (3%)
    Language                    : English
    Service kind                : Complete Main
    Default                     : Yes
    Forced                      : No
    Complexity index            : 16
    Number of dynamic objects   : 15
    Bed channel count           : 1 channel
    Bed channel configuration   : LFE
    
    Text #1
    ID                          : 3
    Format                      : UTF-8
    Codec ID                    : S_TEXT/UTF8
    Codec ID/Info               : UTF-8 Plain Text
    Duration                    : 2 h 2 min
    Bit rate                    : 85 b/s
    Frame rate                  : 0.359 FPS
    Count of elements           : 2647
    Stream size                 : 76.5 KiB (0%)
    Language                    : English
    Default                     : No
    Forced                      : No
    
    Text #2
    ID                          : 4
    Format                      : UTF-8
    Codec ID                    : S_TEXT/UTF8
    Codec ID/Info               : UTF-8 Plain Text
    Duration                    : 2 h 3 min
    Bit rate                    : 92 b/s
    Frame rate                  : 0.387 FPS
    Count of elements           : 2876
    Stream size                 : 84.2 KiB (0%)
    Title                       : SDH
    Language                    : English
    Default                     : No
    Forced                      : No
    
    Text #3
    ID                          : 5
    Format                      : UTF-8
    Codec ID                    : S_TEXT/UTF8
    Codec ID/Info               : UTF-8 Plain Text
    Duration                    : 2 h 2 min
    Bit rate                    : 65 b/s
    Frame rate                  : 0.261 FPS
    Count of elements           : 1923
    Stream size                 : 58.7 KiB (0%)
    Title                       : Latin American
    Language                    : Spanish
    Default                     : No
    Forced                      : No
    
    Text #4
    ID                          : 6
    Format                      : UTF-8
    Codec ID                    : S_TEXT/UTF8
    Codec ID/Info               : UTF-8 Plain Text
    Duration                    : 2 h 2 min
    Bit rate                    : 65 b/s
    Frame rate                  : 0.261 FPS
    Count of elements           : 1923
    Stream size                 : 58.7 KiB (0%)
    Title                       : Latin American
    Language                    : Spanish
    Default                     : No
    Forced                      : No
    
    Text #5
    ID                          : 7
    Format                      : UTF-8
    Codec ID                    : S_TEXT/UTF8
    Codec ID/Info               : UTF-8 Plain Text
    Duration                    : 2 h 2 min
    Bit rate                    : 66 b/s
    Frame rate                  : 0.270 FPS
    Count of elements           : 1995
    Stream size                 : 60.0 KiB (0%)
    Title                       : Canadian
    Language                    : French
    Default                     : No
    Forced                      : No
    
    Text #6
    ID                          : 8
    Format                      : UTF-8
    Codec ID                    : S_TEXT/UTF8
    Codec ID/Info               : UTF-8 Plain Text
    Duration                    : 2 h 2 min
    Bit rate                    : 66 b/s
    Frame rate                  : 0.270 FPS
    Count of elements           : 1995
    Stream size                 : 60.0 KiB (0%)
    Title                       : Canadian
    Language                    : French
    Default                     : No
    Forced                      : No
    
    Menu
    00:00:00.000                : en:Chapter 01
    00:07:45.882                : en:Chapter 02
    00:14:37.877                : en:Chapter 03
    00:24:04.986                : en:Chapter 04
    00:29:18.675                : en:Chapter 05
    00:37:35.505                : en:Chapter 06
    00:42:45.607                : en:Chapter 07
    00:51:14.699                : en:Chapter 08
    00:54:53.209                : en:Chapter 09
    00:59:17.515                : en:Chapter 10
    01:07:10.113                : en:Chapter 11
    01:13:46.134                : en:Chapter 12
    01:19:50.915                : en:Chapter 13
    01:27:12.941                : en:Chapter 14
    01:33:37.617                : en:Chapter 15
    01:38:24.070                : en:Chapter 16
    01:42:23.852                : en:Chapter 17
    01:46:53.496                : en:Chapter 18
    01:54:05.053                : en:Chapter 19
    01:57:45.565                : en:Chapter 20
    Download - Mirror 1:
    Download - Mirror 2:
    Download - Mirror 3:
     
  2. Loading...


Share This Page