Google Drive Chaos.Theory.2008.1080p.BluRay.x264-PFa

Discussion in 'BDRip | 720p/1080p' started by DDLbase, Oct 3, 2020.

  1. DDLbase

    DDLbase Administrator Staff Member

    [​IMG]

    Rating: 6.6/10 based on 31,374 user ratings

    Genres: Comedy, Drama, Romance

    The story of an obsessively organized efficiency expert whose life unravels in unexpected ways when fate forces him to explore the serendipitous nature of love and forgiveness.

    [​IMG]
    Code:
    General
    Unique ID                   : 210034565752532379268141484879663323411 (0x9E032F9AAD08E6CD86CC68F2C0FBD913)
    Complete name               : Chaos.Theory.2008.1080p.BluRay.x264-PFa.mkv
    Format                      : Matroska
    Format version              : Version 2
    File size                   : 5.46 GiB
    Duration                    : 1 h 23 min
    Overall bit rate            : 9 329 kb/s
    Encoded date                : UTC 2011-10-11 08:55:58
    Writing application         : mkvmerge v4.6.0 ('Still Crazy After All These Years') built on Mar 10 2011 02:50:32
    Writing library             : libebml v1.2.0 + libmatroska v1.1.0
    
    Video
    ID                          : 1
    Format                      : AVC
    Format/Info                 : Advanced Video Codec
    Format profile              : [email protected]
    Format settings             : CABAC / 5 Ref Frames
    Format settings, CABAC      : Yes
    Format settings, Reference  : 5 frames
    Muxing mode                 : Header stripping
    Codec ID                    : V_MPEG4/ISO/AVC
    Duration                    : 1 h 23 min
    Bit rate                    : 8 697 kb/s
    Width                       : 1 920 pixels
    Height                      : 800 pixels
    Display aspect ratio        : 2.40:1
    Frame rate mode             : Constant
    Frame rate                  : 25.000 FPS
    Color space                 : YUV
    Chroma subsampling          : 4:2:0
    Bit depth                   : 8 bits
    Scan type                   : Progressive
    Bits/(Pixel*Frame)          : 0.226
    Stream size                 : 4.97 GiB (91%)
    Writing library             : x264 core 118 r2085 8a62835
    Encoding settings           : cabac=1 / ref=5 / deblock=1:0:0 / analyse=0x3:0x133 / me=umh / subme=8 / psy=1 / psy_rd=1.00:0.00 / mixed_ref=1 / me_range=16 / chroma_me=1 / trellis=1 / 8x8dct=1 / cqm=0 / deadzone=21,11 / fast_pskip=0 / chroma_qp_offset=-2 / threads=12 / sliced_threads=0 / nr=0 / decimate=1 / interlaced=0 / bluray_compat=0 / constrained_intra=0 / bframes=3 / b_pyramid=2 / b_adapt=1 / b_bias=0 / direct=1 / weightb=1 / open_gop=0 / weightp=2 / keyint=250 / keyint_min=25 / scenecut=40 / intra_refresh=0 / rc_lookahead=40 / rc=2pass / mbtree=1 / bitrate=8697 / ratetol=1.0 / qcomp=0.60 / qpmin=0 / qpmax=69 / qpstep=4 / cplxblur=20.0 / qblur=0.5 / ip_ratio=1.40 / aq=1:1.00
    Language                    : English
    Default                     : Yes
    Forced                      : No
    
    Audio
    ID                          : 2
    Format                      : AC-3
    Format/Info                 : Audio Coding 3
    Commercial name             : Dolby Digital
    Muxing mode                 : Header stripping
    Codec ID                    : A_AC3
    Duration                    : 1 h 23 min
    Bit rate mode               : Constant
    Bit rate                    : 640 kb/s
    Channel(s)                  : 6 channels
    Channel layout              : L R C LFE Ls Rs
    Sampling rate               : 48.0 kHz
    Frame rate                  : 31.250 FPS (1536 SPF)
    Compression mode            : Lossy
    Stream size                 : 383 MiB (7%)
    Service kind                : Complete Main
    Default                     : Yes
    Forced                      : No
    Download - Mirror 1:
    Download - Mirror 2:
     
  2. Loading...


Share This Page