Google Drive Chaos.Walking.2021.1080p.Bluray.DTS.X264-EVO

Discussion in 'BDRip | 720p/1080p' started by DDLbase, May 15, 2021.

  1. DDLbase

    DDLbase Administrator Staff Member

    [​IMG]

    Rating: 5.7/10 based on 18,467 user ratings

    Genres: Action, Adventure, Fantasy, Sci-Fi

    Two unlikely companions embark on a perilous adventure through the badlands of an unexplored planet as they try to escape a dangerous and disorienting reality, where all inner thoughts are seen and heard by everyone.

    [​IMG]
    Code:
    General
    Unique ID                   : 152152043983437115287270381561022940855 (0x72776AF25E36B8D4DB3F2B2FFA9286B7)
    Complete name               : Chaos.Walking.2021.1080p.Bluray.DTS.X264-EVO.mkv
    Format                      : Matroska
    Format version              : Version 4
    File size                   : 13.2 GiB
    Duration                    : 1 h 48 min
    Overall bit rate            : 17.4 Mb/s
    Movie name                  : EVO
    Encoded date                : UTC 2021-05-14 00:13:34
    Writing application         : mkvmerge v49.0.0 ('Sick Of Losing Soulmates') 64-bit
    Writing library             : libebml v1.4.0 + libmatroska v1.6.1
    
    Video
    ID                          : 1
    Format                      : AVC
    Format/Info                 : Advanced Video Codec
    Format profile              : [email protected]
    Format settings             : 2 Ref Frames
    Format settings, CABAC      : No
    Format settings, Reference  : 2 frames
    Format settings, GOP        : M=3, N=24
    Codec ID                    : V_MPEG4/ISO/AVC
    Duration                    : 1 h 48 min
    Bit rate                    : 15.2 Mb/s
    Nominal bit rate            : 16.3 Mb/s
    Width                       : 1 920 pixels
    Height                      : 800 pixels
    Display aspect ratio        : 2.40:1
    Frame rate mode             : Constant
    Frame rate                  : 23.976 (24000/1001) FPS
    Color space                 : YUV
    Chroma subsampling          : 4:2:0
    Bit depth                   : 8 bits
    Scan type                   : Progressive
    Bits/(Pixel*Frame)          : 0.413
    Stream size                 : 11.6 GiB (88%)
    Writing library             : x264 core 148
    Encoding settings           : cabac=0 / ref=1 / deblock=1:-1:-1 / analyse=0:0 / me=dia / subme=5 / psy=0 / mixed_ref=0 / me_range=16 / chroma_me=1 / trellis=0 / 8x8dct=1 / cqm=0 / deadzone=21,11 / fast_pskip=0 / chroma_qp_offset=0 / threads=16 / lookahead_threads=4 / sliced_threads=0 / nr=0 / decimate=1 / interlaced=0 / bluray_compat=0 / constrained_intra=0 / bframes=2 / b_pyramid=0 / b_adapt=0 / b_bias=0 / direct=1 / weightb=0 / open_gop=0 / weightp=0 / keyint=24 / keyint_min=13 / scenecut=0 / intra_refresh=0 / rc_lookahead=0 / rc=cbr / mbtree=0 / bitrate=16278 / ratetol=1.0 / qcomp=0.60 / qpmin=0 / qpmax=69 / qpstep=4 / vbv_maxrate=16278 / vbv_bufsize=16278 / nal_hrd=none / filler=0 / ip_ratio=1.40 / pb_ratio=1.30 / aq=0
    Default                     : Yes
    Forced                      : No
    Color range                 : Limited
    Color primaries             : BT.709
    Transfer characteristics    : BT.709
    Matrix coefficients         : BT.709
    
    Audio #1
    ID                          : 3
    Format                      : AC-3
    Format/Info                 : Audio Coding 3
    Commercial name             : Dolby Digital
    Codec ID                    : A_AC3
    Duration                    : 1 h 48 min
    Bit rate mode               : Constant
    Bit rate                    : 640 kb/s
    Channel(s)                  : 6 channels
    Channel layout              : L R C LFE Ls Rs
    Sampling rate               : 48.0 kHz
    Frame rate                  : 31.250 FPS (1536 SPF)
    Compression mode            : Lossy
    Stream size                 : 498 MiB (4%)
    Language                    : English
    Service kind                : Complete Main
    Default                     : Yes
    Forced                      : No
    
    Audio #2
    ID                          : 4
    Format                      : DTS
    Format/Info                 : Digital Theater Systems
    Codec ID                    : A_DTS
    Duration                    : 1 h 48 min
    Bit rate mode               : Constant
    Bit rate                    : 1 509 kb/s
    Channel(s)                  : 6 channels
    Channel layout              : C L R Ls Rs LFE
    Sampling rate               : 48.0 kHz
    Frame rate                  : 93.750 FPS (512 SPF)
    Bit depth                   : 24 bits
    Compression mode            : Lossy
    Stream size                 : 1.15 GiB (9%)
    Language                    : English
    Default                     : No
    Forced                      : Yes
    
    Text
    ID                          : 2
    Format                      : PGS
    Muxing mode                 : zlib
    Codec ID                    : S_HDMV/PGS
    Codec ID/Info               : Picture based subtitle format used on BDs/HD-DVDs
    Duration                    : 1 h 38 min
    Bit rate                    : 26.5 kb/s
    Count of elements           : 3568
    Stream size                 : 18.7 MiB (0%)
    Language                    : English
    Default                     : Yes
    Forced                      : No
    Download - Mirror 1:
    Download - Mirror 2:
     
  2. Loading...


Share This Page